<?xml version="1.0" standalone="no"?>
<!DOCTYPE svg PUBLIC "-//W3C//DTD SVG 1.1//EN" "http://www.w3.org/Graphics/SVG/1.1/DTD/svg11.dtd" >
<svg xmlns="http://www.w3.org/2000/svg">
<metadata></metadata>
<defs>
<font id="arctika_scriptregular" horiz-adv-x="692" >
<font-face units-per-em="2048" ascent="1638" descent="-410" />
<missing-glyph horiz-adv-x="528" />
<glyph horiz-adv-x="0" />
<glyph horiz-adv-x="682" />
<glyph unicode=" "  horiz-adv-x="528" />
<glyph unicode="&#x09;" horiz-adv-x="528" />
<glyph unicode="&#xa0;" horiz-adv-x="528" />
<glyph unicode="!" horiz-adv-x="892" d="M219.5 111q-14.5 51 18.5 94q35 47 93 59t107 -16q51 -29 65.5 -79t-20.5 -97q-33 -45 -91 -57.5t-109 16.5q-49 29 -63.5 80zM315 373q59 186 137 371.5t171 377.5h186l-78 -141q39 0 77 -1t79 -1q-98 -113 -191.5 -266.5t-185.5 -360.5q-4 -4 -27.5 -1t-55.5 8.5 t-63.5 10.5t-48.5 3z" />
<glyph unicode="&#x22;" horiz-adv-x="872" d="M8 946q16 96 48 163t81 110t119 64.5t164 31.5q-55 -88 -107.5 -179.5t-93.5 -189.5h-211zM334 946q16 96 48 163t81 110t118.5 64.5t163.5 31.5q-55 -88 -107 -179.5t-93 -189.5h-211z" />
<glyph unicode="%" horiz-adv-x="940" d="M39 0l766 1124l96 -47l-778 -1138zM140.5 845q4.5 48 26 95t57.5 88t83 70t94.5 37t87 -1.5t69.5 -37t44 -70.5t8 -91t-27.5 -95t-57.5 -88t-83 -70t-93 -37t-86 1t-69.5 37t-43.5 71t-9.5 91zM260 801q-20 -66 0.5 -86.5t69.5 18.5q25 18 49 48t47 65t40 71.5t28 69.5 q20 68 -0.5 87.5t-67.5 -19.5q-25 -18 -49.5 -48t-47 -65t-41 -71.5t-28.5 -69.5zM398.5 202q4.5 48 26 95t57.5 88t83 70q47 27 94.5 36t87 -1.5t69.5 -37t44 -69.5t8 -92t-27.5 -95t-57 -88t-83.5 -69q-47 -29 -93 -37t-86 1t-69.5 37t-43.5 71t-9.5 91zM518 158 q-20 -66 0.5 -86.5t69.5 18.5q25 18 49.5 48t47 65t39.5 71.5t28 69.5q20 66 -0.5 86.5t-67.5 -18.5q-25 -18 -49.5 -48t-47 -65t-41 -71.5t-28.5 -69.5z" />
<glyph unicode="'" horiz-adv-x="708" d="M39 946q16 96 48 163t81 110t118.5 64.5t164.5 31.5q-55 -88 -107.5 -179.5t-93.5 -189.5h-211z" />
<glyph unicode="(" horiz-adv-x="473" d="M-1 210q-19 87 4.5 192.5t80.5 213t140 208t181.5 177t205 120.5t208.5 38q-66 -37 -151.5 -114.5t-170.5 -179t-158 -219.5t-109.5 -235.5t-27.5 -226t89 -192.5q-133 14 -203 72.5t-89 145.5z" />
<glyph unicode=")" horiz-adv-x="714" d="M-76 -2q66 37 153 114.5t172 179t157.5 219.5t109.5 235.5t26.5 226t-89.5 192.5q133 -14 202.5 -72.5t90 -145.5t-4 -192.5t-82 -213t-140.5 -208t-181 -177t-205 -120.5t-209 -38z" />
<glyph unicode="+" horiz-adv-x="958" d="M137 475l6 103q111 39 244 55q20 41 35.5 81t32.5 81l168 4l-48 -148q49 6 96.5 6t94.5 -2q-16 -29 -29.5 -59.5t-27.5 -58.5q-43 4 -86 3t-91 -8q-29 -76 -73.5 -147.5t-87.5 -130.5l-144 53q29 53 57.5 107.5t57.5 107.5q-51 -12 -102.5 -24.5t-102.5 -22.5z" />
<glyph unicode="," horiz-adv-x="632" d="M-37 -219q55 88 107.5 179t93.5 190h211q-16 -96 -48 -163t-81 -110t-119 -65.5t-164 -30.5z" />
<glyph unicode="-" d="M119 356l82 176l510 7l-80 -170z" />
<glyph unicode="." horiz-adv-x="550" d="M123 76q0 41 41 66.5t98 23.5q57 0 98 -28.5t39 -67.5q0 -39 -41 -64.5t-98 -25.5q-57 2 -97 29.5t-40 66.5z" />
<glyph unicode="/" horiz-adv-x="1273" d="M250 0q20 72 58 172t87 215t105.5 238t113 238.5t108.5 218t93 175.5h186l-77 -141q39 0 76.5 -1t78.5 -1q-39 -53 -92 -136t-112.5 -183.5t-122 -210t-120 -218t-106.5 -209t-82 -177.5z" />
<glyph unicode="0" horiz-adv-x="876" d="M10 262q0 90 30 183.5t78 180.5t113.5 163.5t138 134t150.5 91.5t152 34q68 2 110.5 -12.5t67 -44t34 -72.5t9.5 -99q0 -82 -25.5 -175t-71.5 -185t-107.5 -178t-133.5 -151.5t-150.5 -104.5t-158.5 -39q-66 -2 -111 21.5t-72.5 62.5t-40 88t-12.5 102zM207 166 q0 -23 4 -44.5t20 -21.5q35 0 82 42t95.5 111t95.5 155t85 173t60.5 166.5t22.5 135.5q0 25 -5 45t-22 20q-25 0 -66.5 -43t-90 -112.5t-99.5 -155.5t-91 -173t-65.5 -166t-25.5 -132z" />
<glyph unicode="1" horiz-adv-x="524" d="M-45 0l356 920q-35 -20 -72.5 -43t-70.5 -41.5t-55.5 -26.5t-28.5 -2q-16 23 -23.5 56.5t-11.5 68.5q80 31 152.5 65.5t150.5 71.5h256l-383 -1069h-270z" />
<glyph unicode="2" horiz-adv-x="829" d="M27 182q39 43 96 93.5t118.5 106.5t123 116.5t110.5 124t80 129t31 131.5q0 25 -11.5 53.5t-42.5 28.5q-27 0 -62.5 -23.5t-72.5 -60.5t-70.5 -83t-54.5 -93l-114 69q45 61 88 112.5t91 87.5t106.5 55.5t136.5 19.5q49 0 91 -18.5t73.5 -49.5t49 -70t17.5 -80 q0 -104 -55.5 -200t-134 -182.5t-165.5 -161t-151 -133.5q51 -2 108.5 5t113 20.5t106.5 31.5t92 37l-96 -219q-162 -35 -310.5 -38t-283.5 13z" />
<glyph unicode="3" horiz-adv-x="831" d="M53 272l185 97q-8 -53 -12.5 -90t-6.5 -68v-46t6 -49.5t20.5 -39t39.5 -15.5q43 0 86 51.5t78.5 122t58 144.5t22.5 121q0 23 -13 33t-34 10q-23 0 -44 -10.5t-39.5 -23.5t-33 -27.5l-22.5 -22.5l-59 65q45 41 94 88t89 100.5t66.5 112t26.5 123.5q0 12 -5 22.5t-21 10.5 q-29 0 -67 -37t-75 -85t-66.5 -97t-41.5 -74l-123 78q47 68 99 123t111.5 94t128 59.5t150.5 18.5q53 -2 94 -21.5t58 -72.5q14 -43 3 -88t-38 -87t-61.5 -79t-67.5 -64q51 8 83 -1t48 -29.5t22.5 -48t6.5 -56.5q0 -86 -48.5 -180t-126 -172t-174 -128t-190.5 -50 q-57 0 -99 26.5t-67.5 67.5t-36 93t-4.5 101z" />
<glyph unicode="4" horiz-adv-x="739" d="M-6 487q84 141 160 282t139 282q59 4 116.5 3t116.5 3q-35 -86 -71.5 -160t-79.5 -141.5t-95.5 -133t-117.5 -137.5q29 -8 79 -12t93 0q35 78 60.5 151.5t60.5 151.5h233l-113 -291q47 10 91.5 24.5t87.5 37.5l-13 -94q-41 -16 -84 -31.5t-104 -26.5l-135 -395h-260 l147 377q-66 2 -131 6t-119 20z" />
<glyph unicode="5" horiz-adv-x="784" d="M35 268q45 45 92 63.5t94 28.5q-2 -8 -7 -30.5t-10 -51t-9.5 -61.5t-4.5 -61q0 -35 17.5 -62.5t46.5 -27.5q57 0 105.5 58t83 141t53 173t18.5 156q0 29 -10 54.5t-39 25.5q-33 0 -62.5 -20.5t-56.5 -49.5t-48.5 -59.5t-37.5 -52.5l-117 49l197 524q80 -12 145.5 -18.5 t129 -7.5t129 3.5t143.5 14.5q0 -47 -19.5 -81t-52.5 -55.5t-75 -31.5t-85 -10q-33 0 -82 8t-84 18l-59 -147q37 27 91 33t93 2q59 -4 101.5 -49.5t42.5 -116.5q0 -119 -37 -233.5t-104.5 -206t-164 -147.5t-212.5 -56q-47 0 -88 18t-71 54t-43 89.5t-3 122.5z" />
<glyph unicode="6" horiz-adv-x="784" d="M16 262q0 84 22.5 175t62.5 178t96.5 167t126 139.5t149.5 94.5t170 35q45 0 78 -11.5t55.5 -28t37.5 -36t24 -35.5q-29 -31 -67 -46.5t-79 -25.5q2 12 4 29.5t0 34t-11 29t-28 12.5q-33 0 -68.5 -33t-67.5 -77t-57.5 -88t-37.5 -64q35 23 73 31t83 8q72 0 122 -49.5 t50 -133.5q0 -121 -41 -228.5t-112 -187t-166 -125.5t-206 -40q-59 2 -100 27.5t-66.5 64.5t-37 87t-9.5 97zM231 182q0 -35 14.5 -63.5t37.5 -30.5q39 -4 79.5 45t73.5 121t53.5 151.5t20.5 141.5q0 35 -8 61.5t-33 26.5q-49 0 -92 -51.5t-75 -123t-51.5 -148t-19.5 -130.5 z" />
<glyph unicode="7" horiz-adv-x="739" d="M0 0l276 492q-47 -2 -100 6t-84 14l43 115q43 -12 95.5 -21.5t105.5 -7.5q18 31 52 80t67.5 99t60.5 95.5t31 67.5q2 8 3 19.5t-26 11.5q-37 0 -88 -12.5t-105.5 -32t-107.5 -43t-94 -43.5q-4 14 -8 36.5t-3 45t11 44t39 35.5q35 18 90 34t117.5 27t126 16t112.5 5 q61 0 99.5 -4t61 -15t30.5 -29.5t8 -47.5q0 -31 -27.5 -80t-64.5 -102t-76 -106.5t-61 -92.5q47 0 85 10.5t87 22.5q-16 -27 -30.5 -59.5t-31.5 -61.5q-49 -12 -82.5 -17t-81.5 -9l-268 -492h-262z" />
<glyph unicode="8" horiz-adv-x="841" d="M-27 195q0 115 75 214t204 158q-27 16 -40 50t-13 77q0 59 30.5 123t85 116t130 85t165.5 33q35 0 67 -2t64 -11l25 76q35 -14 63.5 -23.5t60.5 -14.5t69.5 -3t91.5 8q-10 -33 -23.5 -60.5t-42.5 -45.5q-27 -16 -72 -17.5t-75 3.5q27 -35 20 -107q-6 -45 -28.5 -89 t-56.5 -83t-77 -70.5t-90 -50.5q45 -6 69.5 -43t24.5 -96q0 -86 -44 -164t-112.5 -137.5t-154.5 -94t-172 -34.5q-49 0 -93 10t-78 32.5t-53.5 61.5t-19.5 99zM190 147q0 -16 7.5 -36.5t27.5 -20.5q27 0 66 39t75.5 94.5t62.5 113.5t26 99q0 23 -6.5 42.5t-28.5 19.5 q-29 0 -68 -38t-74.5 -91.5t-61.5 -115t-26 -106.5zM403 662q0 -14 8.5 -32t26.5 -18q27 0 65 35t72.5 83t59 99.5t24.5 85.5q0 18 -6 34t-28 16q-27 0 -65 -33t-72.5 -80t-59.5 -99t-25 -91z" />
<glyph unicode="9" horiz-adv-x="808" d="M-18 55q63 39 112 76t89 76t77 85t76 107q-35 -16 -66.5 -23t-58.5 -7q-78 2 -125 60t-49 144q0 78 32.5 166t100.5 162t169 123t234 49q49 0 88 -16.5t66 -43t41 -61t14 -69.5q0 -123 -41 -245t-109.5 -234.5t-159.5 -211t-191 -174.5q-25 -18 -65 -25t-66 -7 q-61 0 -103.5 20.5t-64.5 48.5zM242 529.5q4 -27.5 22 -37.5t45 -1t58.5 35.5t65.5 66.5t65 89t50 97t27.5 88t4 69t-22.5 41q-16 10 -44 0t-59.5 -37t-65.5 -66.5t-64 -89.5q-31 -49 -50.5 -98t-27.5 -89t-4 -67.5z" />
<glyph unicode=":" horiz-adv-x="620" d="M66 178q0 41 40.5 66.5t98.5 23.5q57 0 98 -28.5t39 -67.5q0 -39 -41 -64.5t-98 -25.5q-57 2 -97 29.5t-40 66.5zM141 492q0 41 41 66.5t99 23.5q57 0 98 -29t39 -68q0 -39 -41 -64.5t-98 -25.5q-57 2 -97.5 30t-40.5 67z" />
<glyph unicode=";" horiz-adv-x="620" d="M8 -150q59 82 111.5 171.5t89.5 197.5h211q-18 -106 -50 -178t-81 -115t-119 -60.5t-162 -15.5zM225 492q0 41 41 66.5t99 23.5q57 0 98 -29t39 -68q0 -39 -41.5 -64.5t-98.5 -25.5q-57 2 -97 30t-40 67z" />
<glyph unicode="=" horiz-adv-x="913" d="M119 164l82 176l510 6l-80 -170zM119 469l82 176l510 6l-80 -170z" />
<glyph unicode="?" horiz-adv-x="890" d="M219.5 107q-14.5 51 18.5 94q35 47 93 59t107 -16q51 -29 65.5 -79t-20.5 -97q-33 -45 -91 -57.5t-109 16.5q-49 29 -63.5 80zM270 813q66 113 147 174.5t208 61.5q43 0 85 -13.5t75.5 -39t55 -64.5t21.5 -88q0 -47 -20.5 -87t-49 -72t-61.5 -56.5t-57 -42.5 q-35 -25 -56.5 -47.5t-38 -49t-30.5 -60.5t-33 -79q-4 -12 -27.5 -10t-54.5 8t-63.5 13.5t-57.5 7.5q18 59 42 122.5t79 122.5q45 49 88 81t77 61.5t55.5 61.5t21.5 81q0 35 -30 52.5t-52 17.5q-53 0 -91 -25.5t-65.5 -61.5t-45 -72t-27.5 -56z" />
<glyph unicode="@" horiz-adv-x="1613" d="M-1 170q5 125 53 253t135 250t199 217t245 153.5t276 58.5q92 0 180.5 -17.5t156 -60.5t109.5 -119t42 -192q0 -78 -16.5 -146.5t-43 -129t-60.5 -114t-69 -102.5q-78 -98 -158.5 -153.5t-191.5 -65.5t-148.5 44t-11.5 157q-25 -35 -47 -66t-51 -57.5t-65.5 -47 t-92.5 -32.5q-98 -23 -135 26.5t-24.5 134.5t65.5 189.5t135 195.5t185.5 149.5t214.5 52.5q70 -6 118 -18.5t101 -35.5l-215 -499q-20 -59 -10 -76t35.5 -7.5t57 35t52.5 50.5q45 55 90 129.5t78 155.5t48 163t3 153.5t-59 127t-140 82.5q-80 20 -168 4.5t-173 -54 t-159.5 -97t-125.5 -124.5q-53 -66 -102.5 -162t-81 -201.5t-38 -210t25.5 -187t110 -135t217 -52.5q76 0 154.5 38t131.5 85q8 8 14.5 0t12.5 -21.5t11 -30t12 -24.5q-35 -25 -73 -49.5t-84 -42.5t-102.5 -28.5t-129.5 -6.5q-180 8 -290 72.5t-159 164t-44 224.5zM469 180 q-4 -39 25 -43q27 10 53 34t52 54.5t49.5 65.5t43.5 65q39 78 92.5 156t92.5 156q-49 -10 -104.5 -52.5t-107 -99.5t-95.5 -121.5t-70.5 -120t-30.5 -94.5z" />
<glyph unicode="&#xad;" d="M119 356l82 176l510 7l-80 -170z" />
<glyph unicode="&#x2000;" horiz-adv-x="682" />
<glyph unicode="&#x2001;" horiz-adv-x="1365" />
<glyph unicode="&#x2002;" horiz-adv-x="682" />
<glyph unicode="&#x2003;" horiz-adv-x="1365" />
<glyph unicode="&#x2004;" horiz-adv-x="455" />
<glyph unicode="&#x2005;" horiz-adv-x="341" />
<glyph unicode="&#x2006;" horiz-adv-x="227" />
<glyph unicode="&#x2007;" horiz-adv-x="227" />
<glyph unicode="&#x2008;" horiz-adv-x="170" />
<glyph unicode="&#x2009;" horiz-adv-x="273" />
<glyph unicode="&#x200a;" horiz-adv-x="75" />
<glyph unicode="&#x2010;" d="M119 356l82 176l510 7l-80 -170z" />
<glyph unicode="&#x2011;" d="M119 356l82 176l510 7l-80 -170z" />
<glyph unicode="&#x2012;" d="M119 356l82 176l510 7l-80 -170z" />
<glyph unicode="&#x2013;" horiz-adv-x="1124" d="M119 356l142 176l882 7l-138 -170z" />
<glyph unicode="&#x2014;" horiz-adv-x="2148" d="M119 356l284 176l1764 7l-277 -170z" />
<glyph unicode="&#x2018;" horiz-adv-x="724" d="M102 942q16 96 48 162.5t81.5 109.5t119 64.5t163.5 32.5q-55 -88 -107.5 -179.5t-93.5 -189.5h-211z" />
<glyph unicode="&#x2019;" horiz-adv-x="704" d="M94 922q55 88 107.5 179t93.5 189h211q-16 -96 -48 -162.5t-81 -109.5t-119 -65.5t-164 -30.5z" />
<glyph unicode="&#x201a;" horiz-adv-x="577" d="M-37 -219q55 88 107.5 179t93.5 190h211q-16 -96 -48 -163t-81 -110t-119 -65.5t-164 -30.5z" />
<glyph unicode="&#x201c;" horiz-adv-x="995" d="M168 942q16 96 48 162.5t81 109.5t118.5 64.5t164.5 32.5q-55 -88 -107.5 -179.5t-93.5 -189.5h-211zM494 942q16 96 47.5 162.5t81 109.5t119 64.5t163.5 32.5q-55 -88 -107.5 -179.5t-92.5 -189.5h-211z" />
<glyph unicode="&#x201d;" horiz-adv-x="1007" d="M168 922q55 88 107.5 179t93.5 189h211q-16 -96 -48 -162.5t-81.5 -109.5t-119 -65.5t-163.5 -30.5zM494 922q55 88 107 179t93 189h211q-16 -96 -48 -162.5t-81 -109.5t-118.5 -65.5t-163.5 -30.5z" />
<glyph unicode="&#x201e;" horiz-adv-x="788" d="M-37 -219q55 88 107.5 179t93.5 190h211q-16 -96 -48 -163t-81 -110t-119 -65.5t-164 -30.5zM289 -219q55 88 107.5 179t92.5 190h211q-16 -96 -47.5 -163t-81 -110t-119 -65.5t-163.5 -30.5z" />
<glyph unicode="&#x202f;" horiz-adv-x="273" />
<glyph unicode="&#x205f;" horiz-adv-x="341" />
<glyph unicode="&#x25fc;" horiz-adv-x="1024" d="M0 0z" />
</font>
</defs>
</svg>
