<?xml version="1.0" standalone="no"?>
<!DOCTYPE svg PUBLIC "-//W3C//DTD SVG 1.1//EN" "http://www.w3.org/Graphics/SVG/1.1/DTD/svg11.dtd" >
<svg xmlns="http://www.w3.org/2000/svg" xmlns:xlink="http://www.w3.org/1999/xlink" version="1.1">
<metadata></metadata>
<defs>
<font id="gabrielaregular" horiz-adv-x="1501" >
<font-face units-per-em="2048" ascent="1638" descent="-410" />
<missing-glyph horiz-adv-x="563" />
<glyph unicode="&#xfb01;" horiz-adv-x="1261" d="M-215 -288q0 87 57.5 140.5t143.5 53.5q39 0 39 -23q0 -6 -15 -22q-43 -53 -43 -121t32 -103.5t87 -35.5t96 54t41 161v1073h-180q0 55 8 71.5t41 24.5l137 33q25 272 149 428t341 156q133 0 219 -63.5t86 -158t-57.5 -150.5t-143.5 -56q-39 0 -39 22q0 4 13 25 q37 57 37 134t-36 115.5t-102 38.5q-289 0 -288 -491h354q88 0 162 26q29 0 46 -18t17 -47v-799q0 -70 62 -69q49 0 102 43l39 -54q-117 -129 -229 -129q-84 0 -121 51.5t-37 165.5v656q0 45 -41 45h-354v-916q0 -213 -93.5 -336.5t-275.5 -123.5q-111 0 -182.5 56 t-71.5 143z" />
<glyph unicode="&#xfb02;" horiz-adv-x="1282" d="M-215 -288q0 87 57.5 140.5t143.5 53.5q39 0 39 -23q0 -6 -15 -22q-43 -53 -43 -121t32 -103.5t87 -35.5t96 54t41 161v1073h-180q0 55 8 71.5t41 24.5l137 33q23 270 140.5 427t320.5 157q106 0 193 -64q78 55 114.5 55t45 -15t8.5 -50l-2 -1348q0 -70 61 -69 q49 0 102 43l39 -54q-117 -129 -229 -129q-84 0 -121 51.5t-37 165.5v1082q0 109 -49 174t-149 65q-258 0 -258 -491h286q0 -92 -47 -129h-239v-916q0 -213 -93.5 -336.5t-275.5 -123.5q-111 0 -182.5 56t-71.5 143z" />
<glyph unicode="&#xfb03;" horiz-adv-x="1802" d="M-215 -288q0 87 57.5 140.5t143.5 53.5q39 0 39 -23q0 -6 -15 -22q-43 -53 -43 -121t32 -103.5t87 -35.5t96 54t41 161v1073h-176q0 55 8 71.5t41 24.5l133 33q25 272 149 428t341 156q162 0 262 -132q121 131 319 132q133 0 219.5 -63.5t86.5 -158t-57.5 -150.5 t-143.5 -56q-39 0 -39 22q0 4 12 25q37 57 37 134t-36 115.5t-101 38.5q-150 0 -219.5 -131t-69.5 -360h354q88 0 162 26q29 0 46.5 -18t17.5 -47v-799q0 -70 61 -69q49 0 103 43l39 -54q-117 -129 -230 -129q-84 0 -121 51.5t-37 165.5v656q0 45 -41 45h-354v-520 q0 -334 -107.5 -524.5t-328.5 -190.5q-111 0 -195 59q-88 -201 -319 -200q-111 0 -182.5 56t-71.5 143zM395 -168q57 -86 152 -86q258 0 258 487v656h-397v-916q0 -76 -13 -141zM408 1018h403q16 190 78 317q-12 82 -62.5 128t-130.5 46q-150 0 -219 -131t-69 -360z" />
<glyph unicode="&#xfb04;" horiz-adv-x="1802" d="M-215 -288q0 87 57.5 140.5t143.5 53.5q39 0 39 -23q0 -6 -15 -22q-43 -53 -43 -121t32 -103.5t87 -35.5t96 54t41 161v1073h-176q0 55 8 71.5t41 24.5l133 33q25 272 149 428t341 156q158 0 258 -125q115 125 295 125q106 0 192 -64q78 55 115 55t45 -15t8 -50l-2 -1348 q1 -69 62 -69q49 0 102 43l39 -54q-117 -129 -229 -129q-84 0 -121 51.5t-37 165.5v1082q0 109 -49 174t-150 65q-258 0 -258 -491h287q0 -92 -47 -129h-240v-520q0 -334 -107.5 -524.5t-328.5 -190.5q-111 0 -195 59q-88 -201 -319 -200q-111 0 -182.5 56t-71.5 143z M395 -168q57 -86 152 -86q258 0 258 487v656h-397v-916q0 -76 -13 -141zM408 1018h403q16 193 76 323q-12 78 -62.5 123t-128.5 45q-150 0 -219 -131t-69 -360z" />
<glyph horiz-adv-x="0" />
<glyph unicode="&#xd;" horiz-adv-x="681" />
<glyph unicode=" "  horiz-adv-x="563" />
<glyph unicode="&#x09;" horiz-adv-x="563" />
<glyph unicode="&#xa0;" horiz-adv-x="563" />
<glyph unicode="!" horiz-adv-x="503" d="M123 1520q45 51 127 51t131 -51q0 -244 -78 -1022q-10 -92 -51 -92t-51 92q-78 778 -78 1022zM127 104.5q0 38.5 44 87t82 48.5t83 -47.5t45 -87t-45 -87t-82 -47.5t-82 47.5t-45 86z" />
<glyph unicode="&#x22;" horiz-adv-x="702" d="M78 1647q37 61 104.5 61t104.5 -61q0 -170 -64 -437q-10 -39 -40.5 -39t-41.5 39q-63 264 -63 437zM416 1647q37 61 104.5 61t104.5 -61q0 -170 -64 -437q-10 -39 -41 -39t-41 39q-63 264 -63 437z" />
<glyph unicode="#" horiz-adv-x="1425" d="M102 459l37 135h205l76 274h-203l37 136h205l129 466h147l-129 -466h365l129 466h147l-129 -466h205l-39 -136h-205l-75 -274h204l-39 -135h-204l-127 -459h-146l127 459h-366l-127 -459h-146l127 459h-205zM492 594h364l76 274h-365z" />
<glyph unicode="$" horiz-adv-x="1189" d="M111 332q0 96 62.5 156.5t156.5 60.5q31 0 37 -6t6 -15.5t-17 -31.5q-45 -63 -45 -159.5t81 -159t188.5 -62.5t181.5 62.5t74 168.5q0 127 -140 207q-61 35 -136 66.5t-149.5 70.5t-136 87t-100.5 126t-39 180q0 145 99.5 259t283.5 126v269q39 49 129 49v-322 q143 -16 237.5 -87.5t94.5 -176t-63.5 -166t-155.5 -61.5h-19q-25 0 -24 24q0 6 16 27q45 66 45 151t-63.5 133t-162.5 48t-160.5 -65.5t-61.5 -167t73.5 -177.5t178 -120t209 -90t178 -134t73.5 -231.5t-108.5 -248t-286.5 -120.5v-266q-35 -49 -129 -49v315 q-174 14 -290.5 100t-116.5 230z" />
<glyph unicode="%" horiz-adv-x="2084" d="M102 1036q0 197 103.5 329t274.5 132t264.5 -123t93.5 -321.5t-104.5 -340t-280.5 -141.5q-123 0 -206 73t-114 173t-31 219zM274 1033q0 -161 49.5 -263t144.5 -102t145.5 103t50.5 263t-50.5 263.5t-145.5 103.5t-144.5 -103.5t-49.5 -264.5zM664 0l612 1470h147 l-614 -1470h-145zM1247 436q0 197 103.5 329t274.5 132t264 -123t93 -321.5t-104 -340t-281 -141.5q-123 0 -205.5 73t-113.5 173t-31 219zM1419 433q0 -161 49.5 -263t144.5 -102t145 103t50 263t-50 263.5t-145 103.5t-144.5 -103.5t-49.5 -264.5z" />
<glyph unicode="&#x26;" horiz-adv-x="1368" d="M61 393q0 139 96.5 244.5t276.5 153.5q-291 72 -291 339q0 150 133.5 259.5t372.5 109.5q145 0 244.5 -69.5t99.5 -176.5q0 -80 -48 -129t-130 -49q-43 0 -43 21q0 4 10 20q33 47 33 121t-50 121t-154.5 47t-173 -78t-68.5 -199.5t71.5 -196.5t177.5 -75q12 0 20.5 -14.5 t8.5 -30.5q0 -41 -26 -41q-162 -41 -244 -144.5t-82 -229.5t82 -221t220 -95t226 73.5t88 190t-49 184.5l-78 -2q-86 -8 -139 -34.5t-73.5 -49t-32 -22.5t-25.5 21.5t-14 43.5q0 104 172 119q250 20 324.5 29.5t123.5 49.5t49 103.5t-27.5 105.5t-54 64.5t-26.5 30.5 q0 31 90 31t153.5 -58.5t63.5 -152.5q0 -238 -405 -270q98 -88 98 -220.5t-117 -239t-358.5 -106.5t-383 111t-141.5 311z" />
<glyph unicode="'" horiz-adv-x="364" d="M78 1647q37 61 104.5 61t104.5 -61q0 -170 -64 -437q-10 -39 -40.5 -39t-41.5 39q-63 264 -63 437z" />
<glyph unicode="(" horiz-adv-x="720" d="M119 678q0 342 139 570.5t399 336.5v-92q-143 -94 -230 -305t-87 -510t87 -510t230 -305v-92q-260 109 -399 337t-139 570z" />
<glyph unicode=")" horiz-adv-x="720" d="M63 -137q143 94 230.5 305t87.5 510t-87 510t-231 305v92q260 -109 399.5 -337t139.5 -570t-139 -570.5t-400 -336.5v92z" />
<glyph unicode="*" horiz-adv-x="1175" d="M143 1342.5q0 43.5 27 76.5t70 43q82 -47 194 -106l113 -60q-51 285 -64 342q37 61 104.5 61.5t104.5 -61.5q-18 -90 -38.5 -204.5t-24.5 -137.5q258 137 307 164q96 -23 96 -114q0 -45 -31 -82q-115 -12 -221 -28.5t-127 -18.5q55 -55 252 -240q0 -59 -32.5 -97 t-70.5 -38t-63 12q-35 76 -86 179.5t-65 135.5q-86 -174 -152 -313q-29 -12 -53 -12q-55 0 -85 40t-30 93q68 61 152 143t100 97q-23 4 -82 12t-125.5 17t-136.5 18q-33 35 -33 78.5z" />
<glyph unicode="+" horiz-adv-x="1271" d="M203 653v156h356v356h154v-356h356v-156h-356v-354h-154v354h-356z" />
<glyph unicode="," horiz-adv-x="391" d="M14 -213l95 184q25 49 24.5 87t-47.5 73l-37 25l-10 49l35 14q63 25 114 25q133 0 134 -138q0 -57 -42 -119.5t-126 -152.5l-80 -86z" />
<glyph unicode="-" horiz-adv-x="727" d="M68 516q0 100 53 143l538 21q0 -102 -53 -143z" />
<glyph unicode="." horiz-adv-x="391" d="M68 104.5q0 38.5 44 87t81.5 48.5t83 -47.5t45.5 -87t-45.5 -87t-82 -47.5t-81.5 47.5t-45 86z" />
<glyph unicode="/" horiz-adv-x="759" d="M0 -129l612 1728h148l-615 -1728h-145z" />
<glyph unicode="0" horiz-adv-x="1419" d="M123 752.5q0 310.5 167 528.5t440.5 218t419.5 -202.5t146 -531.5t-164.5 -561.5t-447.5 -232.5q-152 0 -264.5 67.5t-173.5 182.5q-123 221 -123 531.5zM340 734.5q0 -283.5 94 -465t272.5 -181.5t274.5 182.5t96 463t-96 464.5t-274.5 184t-272.5 -182t-94 -465.5z" />
<glyph unicode="1" horiz-adv-x="856" d="M0 1239l567 264q49 -12 82 -76l-53 -34v-981q0 -123 20.5 -199t71.5 -143l27 -37l-27 -33h-489l-25 70l88 22q80 20 105.5 54t25.5 126v988l-252 -160q-84 16 -141 139z" />
<glyph unicode="2" horiz-adv-x="1220" d="M76 104q610 500 731 760q57 119 57 250t-78.5 200.5t-188.5 69.5t-190.5 -68.5t-80.5 -191.5q0 -84 47 -149q14 -20 14 -33q0 -18 -43 -18q-94 0 -156.5 60t-62.5 157q0 170 140.5 264t352 94t347 -100.5t135.5 -282.5q0 -211 -228 -461q-197 -217 -510 -469h777 q0 -131 -70 -186h-938z" />
<glyph unicode="3" horiz-adv-x="1220" d="M117 303q0 96 62.5 156.5t156.5 60.5h20q23 0 23 -24q0 -6 -14 -29q-47 -63 -47.5 -155.5t79.5 -152t195 -59.5t204 75t89 214q0 102 -60 195q-33 51 -107.5 82.5t-150 31.5t-113.5 -5t-59.5 -10t-25.5 -5q-29 0 -29 31.5t18.5 45t119 32t183 60.5t119.5 95 q61 86 61.5 198.5t-76.5 179t-176.5 66.5t-166 -56t-66.5 -156q0 -84 45 -150q16 -20 17 -27q0 -25 -43 -24q-94 0 -156.5 60.5t-62.5 156.5q0 147 127 228t311 81t327.5 -93t143.5 -261q0 -260 -303 -375q168 -37 257 -143.5t89 -249.5q0 -193 -139.5 -299.5t-355.5 -106.5 t-356 87t-140 245z" />
<glyph unicode="4" horiz-adv-x="1245" d="M61 332l476 1138h129l39 -32l-443 -977h526v278q0 115 -45 187l25 30l225 25v-520h191q0 -92 -47 -129h-142q8 -154 90 -262l27 -37l-27 -33h-489l-25 70l88 22q80 20 104.5 53t24.5 127v60h-727z" />
<glyph unicode="5" horiz-adv-x="1220" d="M117 303q0 96 62.5 156.5t156.5 60.5h20q23 0 23 -24q0 -6 -14 -29q-47 -63 -47.5 -155.5t79.5 -152t195 -59.5t204 78t89 208t-74 228q-41 57 -131 91t-198.5 34t-237.5 -26l-43 75l37 682h796q0 -131 -69 -186h-603l-24 -461q129 29 252 29q258 0 388 -133t130 -325.5 t-140.5 -307.5t-355.5 -115t-355 87t-140 245z" />
<glyph unicode="6" horiz-adv-x="1323" d="M119 672q0 492 278 712q143 115 334 115t304.5 -78t113.5 -190.5t-62.5 -180t-156.5 -67.5q-43 0 -43 25l31 55q31 55 30 113q0 96 -57 151t-159.5 55t-182.5 -64.5t-123 -172.5q-86 -209 -86 -477q0 -66 2 -97q41 131 147.5 209t290 78t290 -115.5t106.5 -308t-128 -328 t-362 -135.5q-272 0 -419.5 201t-147.5 500zM420 399q0 -133 58.5 -216t183 -83t195.5 87t71 224.5t-60.5 222.5t-184.5 85t-193.5 -93.5t-69.5 -226.5z" />
<glyph unicode="7" horiz-adv-x="1015" d="M4 1470h993l-417 -1060q-47 -123 -47.5 -204t28.5 -136l19 -37l-39 -33h-377l-25 70l47 12q82 23 125 65.5t80 137.5l389 999h-706q-70 55 -70 186z" />
<glyph unicode="8" horiz-adv-x="1261" d="M111 340q0 221 272 385q-119 66 -177.5 152t-58.5 213q0 172 121 293.5t345.5 121.5t362.5 -92t138 -293.5t-252 -355.5q289 -147 289 -397q0 -182 -143.5 -292t-381 -110t-376.5 91t-139 284zM328 346q0 -119 76.5 -192.5t213 -73.5t222.5 62.5t86 167t-51.5 161.5 t-174.5 111l-219 96q-153 -162 -153 -332zM358 1157q0 -90 60.5 -154.5t210.5 -130.5l127 -57q137 158 137 315q0 115 -74 188t-194.5 73t-193.5 -72t-73 -162z" />
<glyph unicode="9" horiz-adv-x="1323" d="M158 1005.5q0 188.5 131.5 341t367.5 152.5q262 0 390.5 -224t128.5 -561t-147.5 -540t-430.5 -203q-178 0 -293 81t-115 206q0 84 57.5 135t147.5 51q45 0 45 -24q0 -2 -25.5 -51.5t-25.5 -98.5q0 -84 57.5 -133t149.5 -49q131 0 216 92t115.5 220t30.5 247t-2 154 q-53 -109 -156.5 -172.5t-242.5 -63.5q-188 0 -293.5 126t-105.5 314.5zM403 1038q0 -133 66 -229t190.5 -96t197.5 95t73 228t-67.5 231.5t-192.5 98.5t-196 -97.5t-71 -230.5z" />
<glyph unicode=":" horiz-adv-x="391" d="M68 104.5q0 38.5 44 87t81.5 48.5t83 -47.5t45.5 -87t-45.5 -87t-82 -47.5t-81.5 47.5t-45 86zM68 842q0 39 44 87t81.5 48t83 -47t45.5 -87t-45.5 -87t-82 -47t-81.5 47t-45 86z" />
<glyph unicode=";" horiz-adv-x="391" d="M14 -213l95 184q25 49 24.5 87t-47.5 73l-37 25l-10 49l35 14q63 25 114 25q133 0 134 -138q0 -57 -42 -119.5t-126 -152.5l-80 -86zM68 842q0 39 44 87t81.5 48t83 -47t45.5 -87t-45.5 -87t-82 -47t-81.5 47t-45 86z" />
<glyph unicode="&#x3c;" horiz-adv-x="1271" d="M203 653v156l866 350v-155l-692 -273l692 -272v-156z" />
<glyph unicode="=" horiz-adv-x="1271" d="M203 432v156h866v-156h-866zM203 874v156h866v-156h-866z" />
<glyph unicode="&#x3e;" horiz-adv-x="1271" d="M203 303v156l692 272l-692 273v155l866 -350v-156z" />
<glyph unicode="?" horiz-adv-x="1101" d="M104 1270q0 125 121 204.5t308.5 79.5t312.5 -95t125 -263q0 -217 -289 -494q-80 -76 -117 -119.5t-53 -101.5l-10 -39h-39l-125 127q242 211 320.5 349.5t78.5 264.5t-67.5 190.5t-169 64.5t-153.5 -48.5t-52 -115t12 -103t24.5 -56t12.5 -23.5q0 -23 -39 -23 q-88 0 -144.5 56.5t-56.5 144.5zM352 104.5q0 38.5 44 87t82 48.5t83 -47.5t45 -87t-45 -87t-82 -47.5t-82 47.5t-45 86z" />
<glyph unicode="@" horiz-adv-x="1826" d="M113 512q0 356 252.5 613t615.5 257q328 0 530.5 -211t202.5 -526q0 -133 -47 -260t-151.5 -219t-229.5 -92t-193.5 70.5t-68.5 199.5q-133 -158 -293 -158q-111 0 -182.5 88t-71.5 250q0 238 125 379t326 141q59 0 186 -19t154 -21l16 -25l-18 -33q-23 -31 -25 -59 q-45 -514 -45 -566.5t30.5 -96.5t76.5 -44q74 0 143.5 125t69.5 346q0 270 -145.5 442.5t-399.5 172.5q-289 0 -475.5 -219.5t-186.5 -538.5q0 -272 146.5 -444.5t402.5 -172.5q217 0 369 93l49 -86q-205 -123 -428 -123q-330 0 -532.5 211t-202.5 526zM678 592 q0 -121 45 -185.5t113 -64.5q98 0 186 127l35 410q-61 47 -131 47q-117 0 -182.5 -106.5t-65.5 -227.5z" />
<glyph unicode="A" horiz-adv-x="1445" d="M-33 70l47 12q82 23 119 59.5t70 130.5l321 926q23 68 23 102.5t-21.5 55t-70.5 33.5l-47 12l24 69h395l412 -1187q33 -94 72 -143.5t112 -106.5l-26 -33h-461l-25 70l47 12q50 12 71.5 32.5t21.5 55.5t-23 102l-98 287h-473l-49 -149q-48 -143 -48 -215q0 -70 29 -125 l19 -37l-39 -33h-377zM500 686h387l-197 574z" />
<glyph unicode="B" horiz-adv-x="1333" d="M82 1409q88 35 231.5 62.5t276.5 27.5q281 0 418 -112.5t137 -290.5q0 -115 -54.5 -207t-160.5 -144q137 -45 214 -137t77 -205q0 -186 -127 -294.5t-406 -108.5h-571l-25 70l47 12q78 23 104.5 59.5t26.5 130.5v1012q0 49 -45 49h-119zM473 375q0 -180 84 -232 q66 -37 143 -37q143 0 225.5 85t82.5 213t-89.5 211t-236.5 83q-80 0 -122 20.5t-42 54.5t29 34q2 0 33.5 -7t68.5 -7q139 0 216 81.5t77 214t-87 214t-234.5 81.5t-147.5 -94v-915z" />
<glyph unicode="C" horiz-adv-x="1263" d="M72 734q0 333 169.5 549t491.5 216q203 0 332 -84t129 -217q0 -104 -62.5 -172t-156.5 -68q-43 0 -43 25q0 6 14 29q47 72 47 163t-71.5 150t-187.5 59t-203 -57t-134 -156q-94 -186 -94 -443t121 -436t321 -179q258 0 385 184q6 8 19.5 8t37 -19.5t23.5 -31.5t-6 -23 q-176 -260 -485 -260t-478 215t-169 548z" />
<glyph unicode="D" d="M72 1409q98 35 253.5 62.5t317.5 27.5t301 -41t229.5 -110.5t149.5 -167.5q106 -184 107 -447q0 -322 -175 -527.5t-505 -205.5h-644l-24 70l47 12q66 18 98.5 54t32.5 114v1034q0 49 -45 49h-119zM463 358q0 -145 60.5 -199.5t160.5 -54.5q522 0 522 633q0 260 -129 447 q-63 92 -169.5 146t-243.5 54q-201 0 -201 -94v-932z" />
<glyph unicode="E" horiz-adv-x="1249" d="M92 66l43 12q76 23 100.5 57.5t24.5 122.5v801q0 123 -20.5 198.5t-71.5 143.5l-27 37l27 32h627q176 0 233 43l37 27l33 -27v-364l-70 -25l-12 47q-29 111 -72 147t-151 36h-199q-80 0 -105.5 -31t-25.5 -125v-393h260q94 0 162 94l16 23l41 -23v-350l-70 -25l-12 47 q-18 70 -64 93.5t-159 23.5h-174v-416q0 -94 25.5 -124.5t105.5 -30.5h221q109 0 152 35.5t71 146.5l13 47l69 -24v-351l-41 -22l-16 22q-23 29 -86 29h-862z" />
<glyph unicode="F" horiz-adv-x="1120" d="M92 33l27 37q51 68 71.5 143.5t20.5 198.5v647q0 123 -20.5 198.5t-71.5 143.5l-27 37l27 32h606q176 0 233 43l37 27l33 -27v-364l-70 -25l-12 47q-29 111 -71.5 147t-151.5 36h-178q-80 0 -105.5 -31t-25.5 -125v-414h239q94 0 162 95l16 22l41 -22v-351l-69 -24 l-12 47q-18 70 -64.5 93.5t-159.5 23.5h-153v-396q0 -94 26.5 -131t104.5 -59l47 -12l-25 -70h-448z" />
<glyph unicode="G" horiz-adv-x="1415" d="M72 770q0 428 301 627q156 102 375 102t357 -89t138 -232q0 -104 -62.5 -172t-156.5 -68q-31 0 -37 4t-6 15.5t14 33.5q47 72 47 167t-80.5 160.5t-195.5 65.5t-196 -37.5t-131 -99t-83 -141.5q-63 -152 -63 -326q0 -262 117.5 -438t317.5 -176t339 139v105 q0 94 -26.5 131t-104.5 59l-47 12l24 70h430l27 -33l-27 -37q-51 -68 -71.5 -143.5t-20.5 -198.5v-237q0 -602 -487 -602q-178 0 -275.5 87t-97.5 197.5t69.5 183t190.5 72.5q39 0 39 -22q0 -8 -25.5 -33t-50 -74t-24.5 -122.5t56 -128t153 -54.5q133 0 200.5 102.5 t67.5 335.5v193q-160 -133 -360 -133q-307 0 -471 207t-164 528z" />
<glyph unicode="H" horiz-adv-x="1595" d="M82 70l47 12q78 23 104.5 59.5t26.5 130.5v926q0 94 -26.5 131t-104.5 60l-47 12l24 69h449l27 -32l-27 -37q-51 -68 -71.5 -143.5t-20.5 -198.5v-250h670v389q0 94 -27 131t-105 60l-47 12l25 69h448l27 -32l-27 -37q-51 -68 -71.5 -143.5t-20.5 -198.5v-801 q0 -88 24.5 -123t100.5 -57l43 -12l-22 -66h-502l-25 70l47 12q78 23 105 59.5t27 130.5v412h-670v-426q0 -88 24.5 -123t100.5 -57l43 -12l-23 -66h-502z" />
<glyph unicode="I" horiz-adv-x="722" d="M82 70l47 12q78 23 104.5 59.5t26.5 130.5v926q0 94 -26.5 131t-104.5 60l-47 12l24 69h449l27 -32l-27 -37q-51 -68 -71.5 -143.5t-20.5 -198.5v-801q0 -88 24.5 -123t100.5 -57l43 -12l-23 -66h-502z" />
<glyph unicode="J" horiz-adv-x="960" d="M-41 256q0 111 69.5 183.5t190.5 72.5q39 0 39 -23q0 -8 -24.5 -32.5t-50 -73.5t-25.5 -123t50 -128t138 -54h1q210 0 210 280v840q0 94 -26.5 131t-104.5 60l-47 12l24 69h449l27 -32l-27 -37q-51 -68 -71.5 -143.5t-20.5 -198.5v-576q0 -266 -114 -389t-303 -123 t-286.5 87t-97.5 198z" />
<glyph unicode="K" horiz-adv-x="1368" d="M82 70l47 12q78 23 104.5 59.5t26.5 130.5v926q0 94 -26.5 131t-104.5 60l-47 12l24 69h449l27 -32l-27 -37q-51 -68 -71.5 -143.5t-20.5 -198.5v-801q0 -88 24.5 -123t100.5 -57l43 -12l-23 -66h-502zM512 731q0 49 41 49q33 0 49 -2l279 416q43 68 43 107.5t-27 99.5 l-18 37l39 32h370l25 -69l-47 -12q-104 -29 -160 -111l-369 -533q88 -41 142 -133l262 -465q35 -63 75.5 -63t81.5 29l35 -60q-84 -82 -182 -82t-161.5 49.5t-119.5 149.5l-243 446q-35 61 -105 93q-10 4 -10 22z" />
<glyph unicode="L" horiz-adv-x="1126" d="M82 1401l24 69h449l27 -32l-27 -37q-51 -68 -71.5 -143.5t-20.5 -198.5v-787q0 -94 25.5 -124.5t105.5 -30.5h178q109 0 152 35.5t71 146.5l13 47l69 -24v-351l-41 -22l-16 22q-23 29 -86 29h-819l-23 66l43 12q76 23 100.5 57.5t24.5 122.5v940q0 94 -26.5 131 t-104.5 60z" />
<glyph unicode="M" horiz-adv-x="1886" d="M31 70l47 12q80 25 109.5 61.5t35.5 128.5l56 811q10 82 10 155t-25.5 103.5t-93.5 47.5l-47 12l22 69h373l422 -1030l434 1030h295l31 -32l-25 -37q-73 -105 -73 -254q0 -35 10 -189l41 -561q10 -127 41.5 -212t99.5 -152l-27 -33h-448l-25 70l47 12q66 20 91.5 52 t25.5 79t-4 92l-59 854l-428 -1012h-111l-428 1012l-45 -631q-12 -143 -12 -200q0 -152 73 -258l25 -37l-31 -33h-385z" />
<glyph unicode="N" horiz-adv-x="1595" d="M70 70l47 12q78 23 104.5 59.5t26.5 130.5v926q0 94 -26.5 131t-104.5 60l-47 12l24 69h330l782 -1161v889q0 94 -26.5 131t-104.5 60l-47 12l25 69h389l26 -32l-26 -37q-51 -68 -71.5 -143.5t-20.5 -198.5v-879q0 -70 28 -110l27 -37l-27 -33h-207l-780 1157v-745 q0 -123 20.5 -199t71.5 -143l27 -37l-27 -33h-389z" />
<glyph unicode="O" d="M72 733q0 334 174 550t502.5 216t505 -216t176.5 -550t-176.5 -548t-505 -214t-502.5 214t-174 548zM293 721.5q0 -277.5 116.5 -453.5t331.5 -176t340 180.5t125 429t-92 447.5q-47 104 -139 168.5t-215 64.5q-217 0 -342 -191.5t-125 -469z" />
<glyph unicode="P" horiz-adv-x="1220" d="M72 1409q88 35 232.5 62.5t277.5 27.5q303 0 450.5 -136t147.5 -347t-125 -346t-367 -135q-76 0 -128 18t-52 60t33 42q2 0 32.5 -7t67.5 -7q154 0 240 98.5t86 265t-91.5 273t-252 106.5t-160.5 -94v-878q0 -125 20.5 -200t71.5 -142l27 -37l-27 -33h-449l-24 70l47 12 q78 20 104.5 59t26.5 131v1012q0 49 -45 49h-119z" />
<glyph unicode="Q" d="M72 733q0 334 174 550t502.5 216t505 -216t176.5 -550q0 -207 -70 -373.5t-205 -265.5l102 -227q70 -158 216 -158q37 0 73.5 13.5t38.5 13.5q18 0 19 -21q0 -74 -57.5 -122t-133.5 -48q-207 0 -336 291l-80 174q-117 -39 -247 -39q-330 0 -504 214t-174 548zM293 714.5 q0 -284.5 123 -454.5q-4 14 -4 41q0 102 69.5 160.5t188.5 58.5q233 0 399 -262q137 182 137 469q0 223 -92 422q-47 104 -139 168.5t-215 64.5q-217 0 -342 -191.5t-125 -476zM500 272q0 -90 70.5 -135t174 -45t193.5 51q-66 133 -146.5 195.5t-148.5 62.5t-105.5 -35 t-37.5 -94z" />
<glyph unicode="R" horiz-adv-x="1310" d="M31 1409q88 35 232.5 62.5t277.5 27.5q303 0 450.5 -125t147.5 -323q0 -152 -84 -264.5t-248 -151.5q45 -31 82 -100l190 -388q31 -63 74 -63t84 29l35 -60q-84 -82 -186.5 -82t-164 57.5t-120.5 182.5l-156 330q-18 41 -46 59t-93 43q-39 14 -39 55t33 41q2 0 32.5 -7 t67.5 -7q154 0 240 87t86 234.5t-91.5 242.5t-252 95t-160.5 -94v-878q0 -123 20.5 -198t71.5 -144l27 -37l-27 -33h-448l-25 70l47 12q78 20 104.5 59t26.5 131v1012q0 49 -45 49h-119z" />
<glyph unicode="S" horiz-adv-x="1171" d="M92 301q0 104 66.5 172t167.5 68q43 0 43 -25q0 -4 -17 -29q-49 -70 -49 -168t82 -165.5t207 -67.5t197.5 61.5t72.5 155.5t-41 156.5t-105.5 101.5t-143 75t-157.5 75t-143.5 87t-105.5 125.5t-41 178.5q0 164 115.5 280.5t324.5 116.5t338 -84t129 -217 q0 -104 -62.5 -172t-156.5 -68q-43 0 -43 25q0 6 16 29q45 72 45 163t-71.5 150t-190 59t-184.5 -68.5t-66 -153.5t41 -141t108 -94t146.5 -74t159.5 -77t146.5 -91t107.5 -131t41 -183q0 -182 -122 -291t-347 -109t-366.5 92.5t-141.5 237.5z" />
<glyph unicode="T" horiz-adv-x="1218" d="M41 1149v364l33 27l37 -27q57 -43 233 -43h530q176 0 234 43l37 27l33 -27v-364l-70 -25l-12 47q-29 111 -72 147t-152 36h-92q-43 0 -56 -30t-13 -126v-926q0 -94 26.5 -131t104.5 -59l47 -12l-25 -70h-448l-27 33l27 37q51 68 71.5 143.5t20.5 198.5v786 q0 96 -13.5 126t-56.5 30h-92q-109 0 -151.5 -36t-71.5 -147l-12 -47z" />
<glyph unicode="U" horiz-adv-x="1513" d="M49 1401l25 69h448l27 -32l-27 -37q-51 -68 -71.5 -143.5t-20.5 -198.5v-608q0 -162 102.5 -256.5t258 -94.5t258 94.5t102.5 256.5v747q0 94 -26.5 131t-104.5 60l-47 12l24 69h389l27 -32l-27 -37q-51 -68 -71.5 -143.5t-20.5 -198.5v-608q0 -242 -147.5 -361 t-385 -119t-386 119t-148.5 361v747q0 94 -26.5 131t-104.5 60z" />
<glyph unicode="V" horiz-adv-x="1396" d="M10 1438l27 32h461l24 -69l-47 -12q-49 -13 -70.5 -33.5t-21.5 -55t23 -102.5l333 -1028l287 891q39 123 39 190q-4 113 -92 138l-47 12l24 69h389l27 -32l-31 -37q-76 -90 -112 -205l-396 -1196h-233l-399 1188q-31 94 -70 143t-115 107z" />
<glyph unicode="W" horiz-adv-x="2226" d="M10 1438l27 32h461l24 -69l-47 -12q-49 -13 -70.5 -33.5t-21.5 -55t23 -102.5l333 -1028l305 952l-20 66q-31 94 -70 143t-114 107l26 32h461l25 -69l-47 -12q-49 -12 -71 -33t-22 -55.5t23 -102.5l334 -1028l286 891q39 123 39 190q-4 113 -92 138l-47 12l25 69h389 l26 -32l-30 -37q-76 -90 -113 -205l-395 -1196h-234l-301 893l-295 -893h-233l-399 1188q-31 94 -70 143t-115 107z" />
<glyph unicode="X" horiz-adv-x="1392" d="M20 70l48 12q104 29 159 111l367 530l-350 498q-106 147 -187 217l27 32h485l25 -69l-47 -12q-80 -23 -80 -82.5t45 -126.5l211 -301l211 315q43 68 43 107.5t-27 99.5l-18 37l39 32h377l24 -69l-47 -12q-104 -29 -160 -111l-358 -518l369 -522q100 -141 178 -205 l-27 -33h-485l-25 70l47 12q80 23 80 82t-45 127l-223 313l-217 -328q-43 -68 -43 -107.5t26 -98.5l19 -37l-39 -33h-377z" />
<glyph unicode="Y" horiz-adv-x="1282" d="M10 1438l27 32h461l24 -69l-47 -12q-49 -12 -70.5 -33t-21.5 -48.5t63 -138.5l222 -387l231 414q25 45 25 85t-26 68.5t-60 39.5l-47 12l24 69h389l27 -32l-31 -37q-72 -86 -145 -217l-318 -563v-349q0 -92 29 -131t106 -59l48 -12l-25 -70h-449l-26 33l26 37 q51 72 74 146.5t23 195.5v192l-328 576q-100 178 -205 258z" />
<glyph unicode="Z" horiz-adv-x="1208" d="M41 0l813 1354h-432q-109 0 -152 -36t-71 -147l-13 -47l-69 25v364l33 27l36 -27q58 -43 234 -43h747l-809 -1353h463q109 0 152 35.5t71 146.5l13 47l69 -24v-351l-41 -22l-16 22q-23 29 -86 29h-942z" />
<glyph unicode="[" horiz-adv-x="792" d="M258 -229v1814h479v-98l-164 -25q-61 -10 -86.5 -32.5t-25.5 -75.5v-1352q0 -53 25.5 -75.5t86.5 -32.5l164 -25v-98h-479z" />
<glyph unicode="\" horiz-adv-x="759" d="M0 1599h147l613 -1728h-146z" />
<glyph unicode="]" horiz-adv-x="792" d="M55 -131l164 25q61 10 87 32.5t26 75.5v1352q0 53 -25.5 75.5t-87.5 32.5l-164 25v98h480v-1814h-480v98z" />
<glyph unicode="^" horiz-adv-x="1271" d="M197 815l350 655h176l350 -655h-166l-274 522l-271 -522h-165z" />
<glyph unicode="_" horiz-adv-x="727" d="M-53 -172q0 100 53 143h780q0 -102 -53 -143h-780z" />
<glyph unicode="`" horiz-adv-x="589" d="M110.5 1425.5q0.5 90.5 86.5 130.5l319 -319l-59 -72l-232 115q-115 55 -114.5 145.5z" />
<glyph unicode="a" horiz-adv-x="1236" d="M92 483q0 252 143.5 406.5t387.5 154.5q70 0 210 -23.5t199 -27.5l23 -26l-25 -37q-27 -41 -26 -80v-670q0 -63 61 -63q49 0 102 37l39 -54q-117 -129 -227 -129q-84 0 -121 51.5t-37 165.5q-155 -217 -362 -217q-154 0 -260.5 130t-106.5 382zM307 511q0 -198 66.5 -290 t167.5 -92q172 0 280 186v553q-94 63 -200 64q-150 0 -232 -111.5t-82 -309.5z" />
<glyph unicode="b" horiz-adv-x="1208" d="M51 1479q59 53 135 88t121 35q80 0 80 -66v-1384q92 -66 222 -66t210 113.5t80 305t-79 308.5t-204 117q-49 0 -89 -13.5t-47 -13.5t-16 14.5t-9 35t18 32.5q94 59 207 59q193 0 314.5 -138t121.5 -371.5t-151.5 -398.5t-393 -165t-370.5 129v1280q0 45 -41 45h-90z" />
<glyph unicode="c" horiz-adv-x="1042" d="M92 513q0 239 135 385t361 146q158 0 259 -76.5t101 -197.5q0 -88 -56 -144.5t-144 -56.5q-39 0 -39 23q0 4 12 22q37 59 37 143.5t-52.5 132.5t-140.5 48q-117 0 -188.5 -114.5t-71.5 -303t85 -300t231.5 -111.5t269.5 102q6 6 20.5 6t32 -18.5t17.5 -35t-7 -22.5 q-147 -170 -365 -170t-357.5 151.5t-139.5 390.5z" />
<glyph unicode="d" horiz-adv-x="1236" d="M92 483q0 252 143.5 406.5t387.5 154.5q106 0 194 -26v362q0 45 -41 45h-90l-18 54q59 53 136 88t120 35q80 0 80 -66v-1356q0 -63 61 -63q49 0 102 37l39 -54q-117 -129 -227 -129q-84 0 -121 51.5t-37 165.5q-156 -217 -362 -217q-154 0 -260.5 130t-106.5 382z M307 511q0 -198 66.5 -290t167.5 -92q172 0 280 186v553q-94 63 -200 64q-150 0 -232 -111.5t-82 -309.5z" />
<glyph unicode="e" horiz-adv-x="1083" d="M92 500.5q0 242.5 145.5 393t385.5 150.5q168 0 258 -88t90 -219t-105.5 -235.5t-285.5 -104.5q-66 0 -146 24.5t-80 72.5q0 16 9.5 30.5t16.5 14.5t47 -13.5t89 -13.5q123 0 191.5 69.5t68.5 156.5t-51 145.5t-143 58.5q-131 0 -205 -115.5t-74 -314.5t78 -302.5 t241.5 -103.5t282.5 117q8 8 21.5 8t32 -19t18.5 -34.5t-8 -23.5q-158 -183 -406 -183q-215 0 -343 143.5t-128 386z" />
<glyph unicode="f" horiz-adv-x="684" d="M-215 -288q0 87 57.5 140.5t143.5 53.5q39 0 39 -23q0 -6 -15 -22q-43 -53 -43 -121t32 -103.5t87 -35.5t96 54t41 161v1073h-180q0 55 8 71.5t41 24.5l131 33q0 272 96.5 428t284.5 156q133 0 219 -63.5t86 -158t-56 -150.5t-144 -56q-39 0 -39 22q0 4 12 25 q37 57 37 133t-37 115.5t-100 39.5q-174 0 -174 -335v-156h286q0 -92 -47 -129h-239v-916q0 -213 -93.5 -336.5t-275.5 -123.5q-111 0 -182.5 56t-71.5 143z" />
<glyph unicode="g" horiz-adv-x="1232" d="M123 469q0 266 143.5 420.5t386.5 154.5q70 0 210.5 -23.5t199.5 -27.5l22 -26l-24 -37q-27 -41 -27 -80v-895q0 -252 -121.5 -388t-332.5 -136q-168 0 -259.5 87t-91.5 197.5t70 183t190 72.5q39 0 39 -22q0 -8 -24.5 -33t-50 -74t-25.5 -122.5t48 -128t130 -54.5 q127 0 186.5 104.5t59.5 280.5v326q-156 -217 -363 -217q-154 0 -260 114.5t-106 323.5zM338 526.5q0 -182.5 66.5 -260.5t166.5 -78q172 0 281 187v493q-94 63 -201 64q-149 0 -231 -111.5t-82 -294z" />
<glyph unicode="h" horiz-adv-x="1308" d="M72 1479q59 53 135 88t121 35q80 0 80 -66v-797q53 133 159.5 219t239.5 86t195.5 -88t62.5 -284v-496q0 -70 61 -70q49 0 103 44l39 -54q-117 -129 -230 -129q-84 0 -120.5 51.5t-36.5 165.5v488q0 109 -40 161t-136 52q-133 0 -215 -155t-82 -402q0 -172 65 -265 l25 -32l-25 -31h-358l-23 63l43 11q51 12 68.5 43.5t17.5 109.5v1153q0 45 -41 45h-90z" />
<glyph unicode="i" horiz-adv-x="638" d="M72 922q59 53 135 87.5t121 34.5q80 0 80 -65l-2 -799q0 -69 61 -69q49 0 102 43l39 -54q-117 -129 -229 -129q-84 0 -121 51.5t-37 165.5v635q0 45 -41 45h-90zM188 1347.5q0 38.5 44 87t82 48.5t83 -47t45 -87t-45 -87.5t-81.5 -47.5t-82 47.5t-45.5 86z" />
<glyph unicode="j" horiz-adv-x="595" d="M-227 -370q0 87 57 140.5t143 53.5q39 0 39 -23q0 -6 -14 -22q-43 -53 -43 -121t31.5 -103.5t87 -35.5t96.5 54.5t41 160.5v1089q0 45 -41 45h-90l-19 54q59 53 136 87.5t120 34.5q80 0 80 -65v-1088q0 -213 -93 -336.5t-277 -123.5q-111 0 -182.5 56t-71.5 143z M178 1347.5q0 38.5 44 87t82 48.5t83 -47t45 -87t-45 -87.5t-82 -47.5t-82 47.5t-45 86z" />
<glyph unicode="k" horiz-adv-x="1196" d="M72 1479q59 53 135 88t121 35q80 0 80 -66v-797q51 135 154.5 220t227 85t197.5 -77.5t74 -190t-82 -206t-221 -109.5l160 -303q29 -58 85 -58h1q55 0 108 54l43 -54q-94 -129 -219 -129q-88 0 -136 48.5t-112 168.5l-151 289l-19 6q-39 10 -39 46t31 36q2 0 42 -9t89 -9 q111 0 173.5 64.5t62.5 136t-36 113.5t-102 42q-152 0 -241.5 -158.5t-89.5 -416.5q0 -178 65 -265l25 -32l-25 -31h-358l-23 63l43 11q51 12 68.5 44t17.5 109v1153q0 45 -41 45h-90z" />
<glyph unicode="l" horiz-adv-x="618" d="M51 1479q59 53 135 88t121 35q80 0 80 -66l-2 -1356q0 -69 61 -69q49 0 103 43l39 -54q-117 -129 -230 -129q-84 0 -120.5 51.5t-36.5 165.5v1192q0 45 -41 45h-90z" />
<glyph unicode="m" horiz-adv-x="1927" d="M82 901q59 53 136 88t120 35q80 0 80 -66v-219q53 135 155.5 220t221 85t182 -73.5t74.5 -231.5q53 135 155.5 220t227.5 85t187 -88t62 -280v-496q0 -69 60 -69h2q47 0 102 43l39 -54q-117 -129 -229 -129q-84 0 -121 51.5t-37 165.5v488q0 209 -151 209 q-129 0 -211 -147.5t-86 -385.5v-24q0 -106 17 -169t73 -128l-25 -31h-250v676q0 209 -151 209q-133 0 -215 -154.5t-82 -402.5q0 -172 65 -265l25 -32l-25 -31h-358l-23 63l43 11q51 12 68.5 44t17.5 109v576q0 45 -41 45h-90z" />
<glyph unicode="n" horiz-adv-x="1318" d="M82 901q59 53 136 88t120 35q80 0 80 -66v-219q53 133 159.5 219t236.5 86t195.5 -88t65.5 -280v-496q0 -69 60 -69h2q47 0 102 43l39 -54q-117 -129 -229 -129q-84 0 -121 51.5t-37 165.5v488q0 209 -176 209q-133 0 -215 -154.5t-82 -402.5q0 -172 65 -265l25 -32 l-25 -31h-358l-23 63l43 11q51 12 68.5 44t17.5 109v576q0 45 -41 45h-90z" />
<glyph unicode="o" horiz-adv-x="1183" d="M92 509q0 247 135 391t364.5 144t365 -144t135.5 -391t-135.5 -392.5t-365 -145.5t-364.5 145.5t-135 392.5zM305 504.5q0 -193.5 76 -308t205 -114.5t210 116q81 115 81 281q0 169 -58 301q-29 70 -86 114t-135 44q-131 0 -212 -120t-81 -313.5z" />
<glyph unicode="p" horiz-adv-x="1218" d="M61 870v68q33 29 125.5 55.5t159.5 26.5q49 0 49 -94v-11q133 129 310.5 129t299 -138t121.5 -372.5t-128 -398.5t-322 -164q-123 0 -205 56q-18 12 -18 36q0 51 30 52q2 0 46 -16.5t100 -16.5q123 0 201.5 121t78.5 302t-78.5 292.5t-204.5 111.5t-231 -80v-1146 q0 -78 17.5 -110t68.5 -44l43 -10l-22 -64h-357l-24 31l24 33q66 92 66 264v997q0 57 -43 68z" />
<glyph unicode="q" horiz-adv-x="1206" d="M92 483q0 252 143.5 406.5t387.5 154.5q70 0 213 -23.5t200 -27.5l23 -26l-25 -37q-26 -45 -26 -80v-1092q0 -170 49 -239l20 -33l-24 -31h-381v68l63 28q49 23 67.5 53.5t18.5 96.5v487q-156 -217 -362 -217q-154 0 -260.5 130t-106.5 382zM307 511q0 -198 66.5 -290 t167.5 -92q172 0 280 186v553q-94 63 -200 64q-150 0 -232 -111.5t-82 -309.5z" />
<glyph unicode="r" horiz-adv-x="894" d="M82 901q59 53 136 88t120 35q80 0 80 -66v-219h12q35 137 107.5 221t158.5 84t142.5 -56t56.5 -143t-57.5 -140.5t-143.5 -53.5q-39 0 -39 23q0 2 29 49t29 88t-19.5 62.5t-51.5 21.5t-68.5 -30.5t-73.5 -94.5q-82 -141 -82 -451q0 -166 65 -256l25 -32l-25 -31h-358 l-23 63l43 11q51 12 68.5 44t17.5 109v576q0 45 -41 45h-90z" />
<glyph unicode="s" horiz-adv-x="985" d="M111 227q0 70 47 115t106.5 45t59.5 -25q0 -2 -12.5 -37.5t-12.5 -76.5q0 -86 60.5 -131t139.5 -45t133 46t54 105.5t-36 98t-74.5 59t-112.5 51.5t-118 53.5t-99 63.5q-111 78 -111 210t105.5 208.5t259 76.5t250 -57t96.5 -144t-48 -137.5t-124 -50.5q-43 0 -43 27 q0 6 15.5 42t15.5 73q0 76 -51.5 112.5t-126 36.5t-123 -42t-48.5 -101.5t38 -102.5t81 -66.5t119 -54t118 -51t97 -57.5q106 -74 106 -203t-110.5 -213t-280.5 -84t-270 70t-100 186z" />
<glyph unicode="t" horiz-adv-x="698" d="M23 889q0 55 8 71.5t41 24.5q109 29 154.5 93.5t66.5 166.5q6 33 21.5 41t74.5 8v-276h266q0 -92 -47 -129h-219v-660q0 -63 18.5 -89.5t69.5 -26.5t129 65l39 -53q-53 -70 -127 -112t-148.5 -42t-120.5 52.5t-46 144.5v721h-180z" />
<glyph unicode="u" horiz-adv-x="1294" d="M61 922q53 53 130 87.5t124 34.5q82 0 82 -65v-621q0 -249 195 -249h2q137 0 214 118.5t77 299t-17.5 265.5t-62.5 162l-25 33l25 31l250 26v-864q0 -63 59 -63q47 0 100 37l39 -54q-47 -57 -109.5 -93t-115.5 -36q-158 0 -158 197q-47 -90 -140 -143.5t-223 -53.5 t-213 89.5t-83 250.5v512q0 45 -41 45h-90z" />
<glyph unicode="v" horiz-adv-x="1132" d="M0 922q53 53 127 87.5t130 34.5t67 -65l92 -639q18 -127 52.5 -181.5t102.5 -54.5q127 0 193.5 145.5t66.5 354.5t-90 352l-20 33l24 27l244 28q10 -127 10 -217q0 -403 -131 -629.5t-319 -226.5q-156 0 -228.5 91.5t-107.5 326.5l-63 434q-4 27 -12.5 36t-28.5 9h-91z " />
<glyph unicode="w" horiz-adv-x="1665" d="M0 922q53 53 127 87.5t130 34.5t67 -65l92 -639q18 -127 52.5 -181.5t102.5 -54.5q98 0 161 151t63 355.5t-90 347.5l-21 33l25 27l239 26q10 -127 10 -219t-10 -198l43 -287q18 -127 55 -181.5t109 -54.5q98 0 160.5 151t62.5 355.5t-90 347.5l-20 33l24 27l240 26 q10 -127 10 -217q0 -403 -116.5 -629.5t-284.5 -226.5q-119 0 -185.5 58.5t-103.5 199.5q-115 -258 -303 -258q-156 0 -228.5 91.5t-107.5 326.5l-63 434q-4 27 -12.5 36t-28.5 9h-91z" />
<glyph unicode="x" horiz-adv-x="1132" d="M41 950q88 94 190 94q137 0 220 -143l159 -278q180 205 181 266q0 33 -39 65l-39 33l24 31h318l22 -43l-106 -107q-211 -211 -316 -321l228 -389q35 -58 79 -58h2q43 0 83 27l45 -61q-88 -94 -191 -95q-137 0 -219 144l-166 282q-180 -209 -180 -268q0 -33 39 -66l39 -32 l-25 -31h-317l-23 43q305 305 424 430l-223 385q-35 57 -79 57t-85 -26z" />
<glyph unicode="y" horiz-adv-x="1249" d="M61 924q53 53 130 88t124 35q82 0 82 -66v-563q0 -250 193 -250q137 0 214 103.5t77 278.5t-14.5 257t-65.5 149l-25 33l25 31l250 27v-1092q0 -252 -122 -388t-333 -136q-168 0 -259 87t-91 197.5t69.5 183t190.5 72.5q39 0 39 -22q0 -8 -24.5 -33t-50.5 -74t-26 -122.5 t48.5 -128t130.5 -54.5q127 0 186 104.5t59 280.5v303q-47 -90 -141 -142t-223 -52t-211 89t-82 251v454q0 45 -41 45h-90z" />
<glyph unicode="z" horiz-adv-x="980" d="M68 63l575 836h-307q-78 0 -109.5 -17.5t-44.5 -68.5l-24 -108l-64 22v315l25 25q76 -49 243 -49h510q41 -35 41 -88l-55 -33l-539 -778h322q78 0 109.5 17.5t44.5 68.5l24 108l64 -22v-316l-25 -24q-76 49 -244 49h-524z" />
<glyph unicode="{" horiz-adv-x="647" d="M0 639v78q88 16 122 83.5t34 227.5q0 229 102 380t320 177l14 -92q-104 -25 -156.5 -152t-52.5 -313q0 -301 -225 -350q225 -45 225 -350q0 -186 52 -313.5t157 -151.5l-14 -92q-217 27 -319.5 177t-102.5 380q0 160 -34 227.5t-122 83.5z" />
<glyph unicode="|" horiz-adv-x="718" d="M258 -168v1692h203v-1692h-203z" />
<glyph unicode="}" horiz-adv-x="647" d="M55 -137q104 25 156.5 152t52.5 313q0 305 225 350q-225 49 -225 350q0 186 -52 313t-157 152l15 92q217 -27 319.5 -177.5t102.5 -379.5q0 -160 33.5 -227.5t121.5 -83.5v-78q-88 -16 -121.5 -84t-33.5 -227q0 -229 -102.5 -380t-319.5 -177z" />
<glyph unicode="~" horiz-adv-x="1271" d="M203 659v156q94 -66 192.5 -65.5t242.5 66t248.5 65.5t182.5 -66v-156q-96 68 -193.5 68t-242 -66.5t-247.5 -66.5t-183 65z" />
<glyph unicode="&#xa1;" horiz-adv-x="503" d="M123 -502q0 244 78 1022q10 92 51 92t51 -92q78 -778 78 -1022q-45 -51 -127 -51t-131 51zM123 912q0 40 45 87.5t82 47.5t82 -47.5t45 -86.5t-44 -87t-82 -48t-83 47t-45 87z" />
<glyph unicode="&#xa2;" horiz-adv-x="995" d="M88 734q0 214 107.5 356.5t291.5 175.5v327q39 49 129 49v-370q145 -8 236.5 -83t91.5 -176.5t-56.5 -157.5t-144.5 -56q-39 0 -38 22q0 4 12 23q37 59 37 143t-52.5 132t-140.5 48q-117 0 -188.5 -118.5t-71.5 -306t80 -296t219 -108.5t262 102q6 6 20.5 6t32 -18 t17.5 -34.5t-6 -22.5q-125 -143 -310 -166v-326q-35 -49 -129 -49v375q-180 27 -289.5 171t-109.5 358z" />
<glyph unicode="&#xa3;" horiz-adv-x="1220" d="M61 618q0 94 48 130h151q-57 225 -57 299q0 205 121.5 328.5t371.5 123.5q170 0 292 -73.5t122 -206.5q0 -94 -63.5 -156t-155.5 -62h-19q-25 0 -24 25q0 6 16 27q45 66 45 150.5t-63.5 132.5t-133 48t-113.5 -14t-87 -51q-92 -74 -92 -303q0 -55 39 -268h444 q0 -92 -47 -130h-385q0 -242 -145 -432h813q0 -131 -70 -186h-954l-52 88q111 76 174.5 190.5t63.5 227.5q0 47 -10 112h-230z" />
<glyph unicode="&#xa5;" horiz-adv-x="1282" d="M29 1438l26 32h461l25 -69l-47 -12q-49 -12 -71 -33t-22 -48.5t64 -138.5l221 -387l232 414q25 45 24.5 85t-26 68.5t-60.5 39.5l-47 12l25 69h389l26 -32l-30 -37q-72 -86 -146 -217l-139 -246h252q0 -90 -49 -129h-275l-106 -188v-15h430q0 -90 -49 -129h-381v-205 q0 -92 28.5 -131t106.5 -59l47 -12l-25 -70h-448l-27 33l27 37q51 72 73.5 146.5t22.5 195.5v65h-426q0 94 47 129h377l-115 203h-309q0 94 47 129h189l-138 242q-100 178 -204 258z" />
<glyph unicode="&#xa6;" horiz-adv-x="718" d="M258 -168v598h203v-598h-203zM258 928v596h203v-596h-203z" />
<glyph unicode="&#xa7;" horiz-adv-x="899" d="M70 -303q0 94 57 150.5t143 56.5q39 0 39 -23q0 -4 -12 -24q-37 -57 -37 -133t44 -116t121 -40t134 53t57 137t-42 166t-148 209q-180 213 -180 385q0 55 14 105l315 -379q176 -211 177 -396q0 -152 -91.5 -262t-285.5 -110q-133 0 -219 63.5t-86 157.5zM147 1124 q0 152 91.5 262.5t285.5 110.5q133 0 219 -63.5t86 -157.5t-57 -150.5t-143 -56.5q-39 0 -39 23q0 4 12 22q37 59 37 135t-44 116t-121 40t-134 -53.5t-57 -137.5t42 -165.5t148 -208.5q180 -213 180 -385q0 -55 -14 -105l-315 379q-176 211 -177 395z" />
<glyph unicode="&#xa8;" horiz-adv-x="862" d="M111 1347.5q0 38.5 44 87t81.5 48.5t83 -47t45.5 -87t-45.5 -87.5t-82 -47.5t-81.5 47.5t-45 86zM498 1347.5q0 38.5 44 87t82 48.5t83 -47t45 -87t-45 -87.5t-82 -47.5t-82 47.5t-45 86z" />
<glyph unicode="&#xa9;" horiz-adv-x="1593" d="M205 1020q0 244 174 418t417.5 174t418 -174t174.5 -418t-174.5 -418t-418 -174t-417.5 174t-174 418zM258 1020q0 -223 157.5 -381t381 -158t381 158t157.5 381t-157.5 381t-381 158t-381 -158t-157.5 -381zM442 1025q0 181 93.5 298t271.5 117q100 0 180 -49l19 36h51 v-223q-16 -29 -70 -28l-26 106q-59 82 -146.5 82t-138.5 -53q-92 -92 -92 -285q0 -139 62.5 -232.5t166.5 -93.5q135 0 209 111l53 -47q-100 -154 -273 -154t-266.5 117t-93.5 298z" />
<glyph unicode="&#xaa;" horiz-adv-x="815" d="M92 937q0 93 80 153.5t217 60.5q68 0 111 -8v117q0 152 -99 151q-111 0 -110 -156q-37 -31 -77 -30.5t-62.5 22t-22.5 56.5q0 80 81 137t201.5 57t181 -63.5t60.5 -200.5v-338q0 -35 28 -35t75 31l39 -53q-92 -98 -174 -99q-104 0 -119 109q-72 -109 -211 -109 q-86 0 -142.5 52.5t-56.5 145.5zM258 946q0 -94 92 -94q66 0 107 58.5t43 150.5q-23 8 -80 8q-162 0 -162 -123z" />
<glyph unicode="&#xab;" horiz-adv-x="1036" d="M102 570.5q0 35.5 46.5 120.5t181.5 304q109 -8 176 -94q-45 -80 -281 -330q233 -246 281 -329q-66 -86 -176 -95q-137 224 -182.5 306t-45.5 117.5zM530 570.5q0 35.5 46.5 120.5t181.5 304q109 -8 176 -94q-45 -80 -281 -330q233 -246 281 -329q-66 -86 -176 -95 q-137 224 -182.5 306t-45.5 117.5z" />
<glyph unicode="&#xac;" horiz-adv-x="1271" d="M203 653v156h866v-465h-139v309h-727z" />
<glyph unicode="&#xad;" horiz-adv-x="727" d="M68 516q0 100 53 143l538 21q0 -102 -53 -143z" />
<glyph unicode="&#xae;" horiz-adv-x="1593" d="M205 1020q0 244 174 418t417.5 174t418 -174t174.5 -418t-174.5 -418t-418 -174t-417.5 174t-174 418zM258 1020q0 -223 157.5 -381t381 -158t381 158t157.5 381t-157.5 381t-381 158t-381 -158t-157.5 -381zM498 625v49l49 26q18 8 18 33v602l-67 25q0 45 30 65h226 q162 0 235.5 -59t73.5 -143q0 -172 -148 -234q35 -35 41 -49l125 -231l64 -23q0 -41 -27 -61h-178l-18 20q18 33 18 46.5t-14 41.5l-97 185q-20 41 -71 40h-60v-243l68 -23q0 -43 -31 -67h-237zM698 1034h62q84 0 124 46t40 120q0 143 -170 143q-56 1 -56 -32v-277z" />
<glyph unicode="&#xaf;" horiz-adv-x="835" d="M115 1264q0 117 53 163h551q0 -119 -53 -163h-551z" />
<glyph unicode="&#xb0;" horiz-adv-x="890" d="M82 1119q0 173 97 275.5t265 102.5t266.5 -102.5t98.5 -275.5t-98.5 -276.5t-265 -103.5t-265 103.5t-98.5 276.5zM256 1113q0 -132 48 -204.5t133 -72.5t140.5 77.5t55.5 209.5t-48 205t-133 73t-140.5 -78t-55.5 -210z" />
<glyph unicode="&#xb1;" horiz-adv-x="1271" d="M203 -2v156h866v-156h-866zM203 653v156h356v356h154v-356h356v-156h-356v-354h-154v354h-356z" />
<glyph unicode="&#xb2;" horiz-adv-x="794" d="M55 668q281 229 373 353t92 241q0 68 -40 104.5t-95 36.5t-96 -37t-41 -100q0 -25 17.5 -63t17.5 -48q0 -23 -55.5 -22.5t-98.5 40t-43 101.5q0 106 88 165.5t224.5 59.5t220 -62.5t83.5 -177t-109.5 -244.5t-301.5 -286h436q0 -94 -53 -139h-580z" />
<glyph unicode="&#xb3;" horiz-adv-x="794" d="M80 784q0 61 44 101.5t90 40.5t55.5 -4t9.5 -25q-4 0 -19.5 -38t-15.5 -78t40 -71.5t99 -31.5t104 41t45 110.5t-38.5 122t-143.5 52.5q-39 0 -61.5 -6.5t-36.5 -6.5q-39 0 -39 35q0 25 13.5 34t70.5 19q211 41 211 193q0 63 -39 98t-88 35t-82 -28.5t-33 -77t17.5 -77 t17.5 -32.5q0 -27 -55.5 -27t-98.5 39t-43 101q0 94 80 145t199 51t210 -58.5t91 -164.5q0 -139 -156 -213q88 -31 134.5 -93.5t46.5 -142.5q0 -120 -87 -186t-225.5 -66t-227.5 55.5t-89 153.5z" />
<glyph unicode="&#xb4;" horiz-adv-x="589" d="M129 1237l320 319q86 -41 86 -131t-115 -145l-232 -115z" />
<glyph unicode="&#xb5;" horiz-adv-x="1257" d="M45 870v68q37 29 130 55.5t157 26.5q47 0 47 -94v-568q0 -250 207 -249q121 0 198.5 96t77.5 246v387q-4 53 -28 92l-25 37l25 26l213 27v-1020l-25 -29q-160 0 -160 197q-41 -86 -127 -141.5t-185 -55.5t-171 70v-469l-211 27l-25 26l25 37q29 41 29 105v1013 q0 57 -45 68z" />
<glyph unicode="&#xb6;" horiz-adv-x="1261" d="M137 1108q0 176 121 283.5t311 107.5q100 0 259 -24.5t204 -28.5l23 -27l-25 -37q-27 -45 -26 -79v-1344q0 -152 -91 -262.5t-286 -110.5q-133 0 -219 63.5t-86 158t57 150.5t143 56q39 0 39 -22q0 -4 -12 -25q-37 -57 -37 -133t44 -116t121 -40t134 53.5t57 147.5 q0 145 -190 365l-328 379q-213 248 -213 485zM295 1161q0 -190 205 -428l315 -364v649q0 170 -76.5 268t-228.5 98q-86 0 -150.5 -59t-64.5 -164z" />
<glyph unicode="&#xb7;" horiz-adv-x="391" d="M68 657q0 39 44 87.5t81.5 48.5t83 -47.5t45.5 -87.5t-45.5 -87t-82 -47t-81.5 47t-45 86z" />
<glyph unicode="&#xb8;" horiz-adv-x="716" d="M113 -456.5q0 63.5 37.5 96t83 32.5t45.5 -20q0 -4 -14.5 -28.5t-14.5 -60.5t24.5 -58.5t71.5 -22.5t82 46t35 108.5t-36 107.5t-96.5 45t-117.5 -35l-41 37l242 313l49 -45l-158 -202q35 8 78 8q98 0 164.5 -59.5t66.5 -165t-79.5 -175t-184 -69.5t-171 42t-66.5 105.5z " />
<glyph unicode="&#xb9;" horiz-adv-x="653" d="M29 1341l358 164q45 -10 76 -63l-37 -23v-557q0 -135 51 -196l23 -27l-27 -35h-317l-23 64l70 18q37 10 49 26.5t12 65.5v537l-121 -78q-74 16 -114 104z" />
<glyph unicode="&#xba;" horiz-adv-x="890" d="M82 1119q0 173 97 275.5t265 102.5t266.5 -102.5t98.5 -275.5t-98.5 -276.5t-265 -103.5t-265 103.5t-98.5 276.5zM256 1121q0 -130 56.5 -207.5t140.5 -77.5t132 72.5t48 201.5t-56.5 212t-141.5 83t-132 -77t-47 -207z" />
<glyph unicode="&#xbb;" horiz-adv-x="1036" d="M102 242q47 84 281 329q-236 250 -281 330q68 86 177 94q135 -219 181 -304t46 -120.5t-45 -117.5t-182 -306q-111 8 -177 95zM530 242q47 84 281 329q-236 250 -281 330q68 86 177 94q135 -219 181 -304t46 -120.5t-45 -117.5t-182 -306q-111 8 -177 95z" />
<glyph unicode="&#xbc;" horiz-adv-x="2084" d="M162 1341l358 164q45 -10 76 -63l-37 -23v-557q0 -135 51 -196l23 -27l-27 -35h-317l-23 64l70 18q37 10 49 26.5t12 65.5v537l-121 -78q-74 16 -114 104zM602 0l612 1470h148l-614 -1470h-146zM1163 195l291 698h105l34 -31l-254 -563h258v152q0 63 -28 108l24 29 l168 18v-307h113q0 -72 -41 -104h-70q10 -90 47 -134l23 -26l-25 -35h-317l-25 63l70 19q37 10 49 26.5t12 65.5v21h-434z" />
<glyph unicode="&#xbd;" horiz-adv-x="2084" d="M162 1341l358 164q45 -10 76 -63l-37 -23v-557q0 -135 51 -196l23 -27l-27 -35h-317l-23 64l70 18q37 10 49 26.5t12 65.5v537l-121 -78q-74 16 -114 104zM561 0l613 1470h147l-614 -1470h-146zM1188 78q281 229 373 353t92 241q0 68 -40 104.5t-95.5 36.5t-96.5 -37 t-41 -100q0 -25 17.5 -63t17.5 -48q0 -23 -55 -22.5t-98 40.5t-43 101q0 106 88 165.5t224 59.5t220 -62.5t84 -177t-109.5 -244.5t-302.5 -286h437q0 -94 -54 -139h-579z" />
<glyph unicode="&#xbe;" horiz-adv-x="2084" d="M145 784q0 61 44 101.5t90.5 40.5t55.5 -4t9 -25q-4 0 -19.5 -38t-15.5 -78t40 -71.5t99.5 -31.5t104.5 41t45 110.5t-39 122t-143 52.5q-39 0 -61.5 -6.5t-37.5 -6.5q-39 0 -38 35q0 25 13 34t70 19q211 41 211 193q0 63 -38.5 98t-88 35t-82 -28.5t-32.5 -77t17.5 -77 t17.5 -32.5q0 -27 -55.5 -27t-98.5 39t-43 101q0 94 80 145t198.5 51t210 -58.5t91.5 -164.5q0 -139 -156 -213q88 -31 134 -93.5t46 -142.5q0 -120 -87 -186t-225 -66t-227.5 55.5t-89.5 153.5zM664 0l612 1470h147l-614 -1470h-145zM1163 195l291 698h105l34 -31 l-254 -563h258v152q0 63 -28 108l24 29l168 18v-307h113q0 -72 -41 -104h-70q10 -90 47 -134l23 -26l-25 -35h-317l-25 63l70 19q37 10 49 26.5t12 65.5v21h-434z" />
<glyph unicode="&#xbf;" horiz-adv-x="1101" d="M131 -178q0 217 289 493q80 76 116.5 120t53.5 102l10 38h39l125 -126q-242 -211 -320.5 -349.5t-78.5 -264.5t67.5 -190.5t168.5 -64.5t153.5 48t52.5 115t-12.5 103.5t-24.5 56t-12 23.5q0 23 39 23q88 0 144 -56.5t56 -144.5q0 -125 -120.5 -205t-308 -80t-312.5 95.5 t-125 263.5zM496 912q0 40 45 87.5t81.5 47.5t82 -47.5t45.5 -86.5t-44 -87t-82 -48t-83 47t-45 87z" />
<glyph unicode="&#xc0;" horiz-adv-x="1445" d="M-33 70l47 12q82 23 119 59.5t70 130.5l321 926q23 68 23 102.5t-21.5 55t-70.5 33.5l-47 12l24 69h395l412 -1187q33 -94 72 -143.5t112 -106.5l-26 -33h-461l-25 70l47 12q50 12 71.5 32.5t21.5 55.5t-23 102l-98 287h-473l-49 -149q-47 -141 -47.5 -213t28.5 -127 l19 -37l-39 -33h-377zM500 686h387l-197 574zM520 1878q0 90 86 131l320 -319l-60 -72l-231 115q-115 55 -115 145z" />
<glyph unicode="&#xc1;" horiz-adv-x="1445" d="M-33 70l47 12q82 23 119 59.5t70 130.5l321 926q23 68 23 102.5t-21.5 55t-70.5 33.5l-47 12l24 69h395l412 -1187q33 -94 72 -143.5t112 -106.5l-26 -33h-461l-25 70l47 12q50 12 71.5 32.5t21.5 55.5t-23 102l-98 287h-473l-49 -149q-47 -141 -47.5 -213t28.5 -127 l19 -37l-39 -33h-377zM500 686h387l-197 574zM520 1690l320 319q86 -41 86 -131t-115 -145l-231 -115z" />
<glyph unicode="&#xc2;" horiz-adv-x="1445" d="M-33 70l47 12q82 23 119 59.5t70 130.5l321 926q23 68 23 102.5t-21.5 55t-70.5 33.5l-47 12l24 69h395l412 -1187q33 -94 72 -143.5t112 -106.5l-26 -33h-461l-25 70l47 12q50 12 71.5 32.5t21.5 55.5t-23 102l-98 287h-473l-49 -149q-47 -141 -47.5 -213t28.5 -127 l19 -37l-39 -33h-377zM442 1675q66 115 139.5 207t114.5 117h56q37 -23 112.5 -117t139.5 -207l-66 -57l-215 170l-213 -170zM500 686h387l-197 574z" />
<glyph unicode="&#xc3;" horiz-adv-x="1445" d="M-33 70l47 12q82 23 119 59.5t70 130.5l321 926q23 68 23 102.5t-21.5 55t-70.5 33.5l-47 12l24 69h395l412 -1187q33 -94 72 -143.5t112 -106.5l-26 -33h-461l-25 70l47 12q50 12 71.5 32.5t21.5 55.5t-23 102l-98 287h-473l-49 -149q-47 -141 -47.5 -213t28.5 -127 l19 -37l-39 -33h-377zM387 1726q145 199 264 199q47 0 104.5 -36t88.5 -36q57 0 139 80l70 -63q-141 -199 -262 -199q-49 0 -107.5 36t-87.5 36q-57 0 -137 -80zM500 686h387l-197 574z" />
<glyph unicode="&#xc4;" horiz-adv-x="1445" d="M-33 70l47 12q82 23 119 59.5t70 130.5l321 926q23 68 23 102.5t-21.5 55t-70.5 33.5l-47 12l24 69h395l412 -1187q33 -94 72 -143.5t112 -106.5l-26 -33h-461l-25 70l47 12q50 12 71.5 32.5t21.5 55.5t-23 102l-98 287h-473l-49 -149q-47 -141 -47.5 -213t28.5 -127 l19 -37l-39 -33h-377zM401 1800q0 39 44 87t82 48t83 -47t45 -87t-45 -87t-81.5 -47t-82 47t-45.5 86zM500 686h387l-197 574zM788 1800q0 39 44.5 87t82 48t82.5 -47t45 -87t-45 -87t-81.5 -47t-82 47t-45.5 86z" />
<glyph unicode="&#xc5;" horiz-adv-x="1445" d="M-33 70l47 12q82 23 119 59.5t70 130.5l321 926q23 68 23 102.5t-21.5 55t-70.5 33.5l-47 12l24 69h395l412 -1187q33 -94 72 -143.5t112 -106.5l-26 -33h-461l-25 70l47 12q50 12 71.5 32.5t21.5 55.5t-23 102l-98 287h-473l-49 -149q-47 -141 -47.5 -213t28.5 -127 l19 -37l-39 -33h-377zM489 1800q0 96 59.5 157.5t172.5 61.5t173 -61.5t60 -157.5t-60 -156.5t-173 -60.5t-172.5 60.5t-59.5 156.5zM500 686h387l-197 574zM633 1800q0 -51 22.5 -85t64.5 -34t65.5 34t23.5 85t-23.5 85t-65.5 34t-64.5 -34t-22.5 -85z" />
<glyph unicode="&#xc6;" horiz-adv-x="1974" d="M-29 70l47 12q115 31 160 111l713 1277h629q176 0 233 43l37 27l33 -27v-364l-70 -25l-12 47q-29 111 -72 147t-151 36h-199q-80 0 -105.5 -31t-25.5 -125v-455h260q94 0 162 95l16 22l41 -22v-351l-70 -24l-12 47q-18 70 -64 93.5t-159 23.5h-174v-355 q0 -94 25.5 -124.5t105.5 -30.5h221q109 0 152 35.5t71 146.5l13 47l69 -24v-351l-41 -22l-16 22q-23 29 -86 29h-862l-23 66l43 12q76 23 100.5 57.5t24.5 122.5v369h-405l-170 -312q-43 -80 -43 -133t26 -112l19 -37l-39 -33h-377zM645 743h340v619z" />
<glyph unicode="&#xc7;" horiz-adv-x="1263" d="M72 752.5q0 314.5 170 530.5t491 216q203 0 332 -84t129 -217q0 -104 -62.5 -172t-156.5 -68q-43 0 -43 25q0 6 14 29q47 72 47 163t-71.5 150t-187.5 59t-203 -57t-134 -156q-94 -186 -94 -443t121 -436t321 -179q258 0 385 184q6 8 19.5 8t37 -19.5t23.5 -31.5t-6 -23 q-176 -260 -477 -260l-59 2l-90 -116q35 8 77 8q98 0 165 -59.5t67 -165t-80 -175t-184.5 -69.5t-171 42t-66.5 105.5t38 96t83 32.5t45 -20q0 -4 -14.5 -28.5t-14.5 -60.5t24.5 -58.5t72 -22.5t82 46t34.5 108.5t-35.5 107.5t-96 45t-118.5 -35l-41 37l148 193 q-254 45 -387 249.5t-133 519z" />
<glyph unicode="&#xc8;" horiz-adv-x="1249" d="M92 66l43 12q76 23 100.5 57.5t24.5 122.5v801q0 123 -20.5 198.5t-71.5 143.5l-27 37l27 32h627q176 0 233 43l37 27l33 -27v-364l-70 -25l-12 47q-29 111 -72 147t-151 36h-199q-80 0 -105.5 -31t-25.5 -125v-393h260q94 0 162 94l16 23l41 -23v-350l-70 -25l-12 47 q-18 70 -64 93.5t-159 23.5h-174v-416q0 -94 25.5 -124.5t105.5 -30.5h221q109 0 152 35.5t71 146.5l13 47l69 -24v-351l-41 -22l-16 22q-23 29 -86 29h-862zM430 1878q0 90 86 131l320 -319l-60 -72l-231 115q-115 55 -115 145z" />
<glyph unicode="&#xc9;" horiz-adv-x="1249" d="M92 66l43 12q76 23 100.5 57.5t24.5 122.5v801q0 123 -20.5 198.5t-71.5 143.5l-27 37l27 32h627q176 0 233 43l37 27l33 -27v-364l-70 -25l-12 47q-29 111 -72 147t-151 36h-199q-80 0 -105.5 -31t-25.5 -125v-393h260q94 0 162 94l16 23l41 -23v-350l-70 -25l-12 47 q-18 70 -64 93.5t-159 23.5h-174v-416q0 -94 25.5 -124.5t105.5 -30.5h221q109 0 152 35.5t71 146.5l13 47l69 -24v-351l-41 -22l-16 22q-23 29 -86 29h-862zM492 1690l319 319q86 -41 86 -131t-115 -145l-231 -115z" />
<glyph unicode="&#xca;" horiz-adv-x="1249" d="M92 66l43 12q76 23 100.5 57.5t24.5 122.5v801q0 123 -20.5 198.5t-71.5 143.5l-27 37l27 32h627q176 0 233 43l37 27l33 -27v-364l-70 -25l-12 47q-29 111 -72 147t-151 36h-199q-80 0 -105.5 -31t-25.5 -125v-393h260q94 0 162 94l16 23l41 -23v-350l-70 -25l-12 47 q-18 70 -64 93.5t-159 23.5h-174v-416q0 -94 25.5 -124.5t105.5 -30.5h221q109 0 152 35.5t71 146.5l13 47l69 -24v-351l-41 -22l-16 22q-23 29 -86 29h-862zM373 1675q66 115 139.5 207t114.5 117h55q37 -23 112.5 -117t139.5 -207l-66 -57l-215 170l-213 -170z" />
<glyph unicode="&#xcb;" horiz-adv-x="1249" d="M92 66l43 12q76 23 100.5 57.5t24.5 122.5v801q0 123 -20.5 198.5t-71.5 143.5l-27 37l27 32h627q176 0 233 43l37 27l33 -27v-364l-70 -25l-12 47q-29 111 -72 147t-151 36h-199q-80 0 -105.5 -31t-25.5 -125v-393h260q94 0 162 94l16 23l41 -23v-350l-70 -25l-12 47 q-18 70 -64 93.5t-159 23.5h-174v-416q0 -94 25.5 -124.5t105.5 -30.5h221q109 0 152 35.5t71 146.5l13 47l69 -24v-351l-41 -22l-16 22q-23 29 -86 29h-862zM332 1800q0 39 44 87t82 48t83 -47t45 -87t-45 -87t-82 -47t-82 47t-45 86zM719 1800q0 39 44 87t82 48t83 -47 t45 -87t-45 -87t-82 -47t-82 47t-45 86z" />
<glyph unicode="&#xcc;" horiz-adv-x="722" d="M82 70l47 12q78 23 104.5 59.5t26.5 130.5v926q0 94 -26.5 131t-104.5 60l-47 12l24 69h449l27 -32l-27 -37q-51 -68 -71.5 -143.5t-20.5 -198.5v-801q0 -88 24.5 -123t100.5 -57l43 -12l-23 -66h-502zM157.5 1878q0.5 90 86.5 131l319 -319l-59 -72l-232 115 q-115 55 -114.5 145z" />
<glyph unicode="&#xcd;" horiz-adv-x="722" d="M82 70l47 12q78 23 104.5 59.5t26.5 130.5v926q0 94 -26.5 131t-104.5 60l-47 12l24 69h449l27 -32l-27 -37q-51 -68 -71.5 -143.5t-20.5 -198.5v-801q0 -88 24.5 -123t100.5 -57l43 -12l-23 -66h-502zM178 1690l320 319q86 -41 86 -131t-115 -145l-231 -115z" />
<glyph unicode="&#xce;" horiz-adv-x="722" d="M80 1675q66 115 139.5 207t114.5 117h55q37 -23 113 -117t139 -207l-66 -57l-215 170l-213 -170zM82 70l47 12q78 23 104.5 59.5t26.5 130.5v926q0 94 -26.5 131t-104.5 60l-47 12l24 69h449l27 -32l-27 -37q-51 -68 -71.5 -143.5t-20.5 -198.5v-801q0 -88 24.5 -123 t100.5 -57l43 -12l-23 -66h-502z" />
<glyph unicode="&#xcf;" horiz-adv-x="722" d="M41 1800q0 39 44 87t82 48t83 -47t45 -87t-45 -87t-82 -47t-82 47t-45 86zM82 70l47 12q78 23 104.5 59.5t26.5 130.5v926q0 94 -26.5 131t-104.5 60l-47 12l24 69h449l27 -32l-27 -37q-51 -68 -71.5 -143.5t-20.5 -198.5v-801q0 -88 24.5 -123t100.5 -57l43 -12l-23 -66 h-502zM428 1800q0 39 44 87t82 48t83 -47t45 -87t-45 -87t-82 -47t-82 47t-45 86z" />
<glyph unicode="&#xd0;" d="M20 680q0 94 48 129h192v475q0 49 -45 49h-119l-24 76q98 35 253.5 62.5t317.5 27.5t301 -41t229.5 -110.5t149.5 -167.5q106 -184 107 -447q0 -322 -175 -527.5t-505 -205.5h-644l-24 70l47 12q66 18 98.5 54t32.5 114v430h-240zM463 358q0 -145 60.5 -199.5 t160.5 -54.5q522 0 522 633q0 260 -129 447q-63 92 -169.5 146t-243.5 54q-201 0 -201 -94v-481h399q0 -92 -47 -129h-352v-322z" />
<glyph unicode="&#xd1;" horiz-adv-x="1595" d="M70 70l47 12q78 23 104.5 59.5t26.5 130.5v926q0 94 -26.5 131t-104.5 60l-47 12l24 69h330l782 -1161v889q0 94 -26.5 131t-104.5 60l-47 12l25 69h389l26 -32l-26 -37q-51 -68 -71.5 -143.5t-20.5 -198.5v-879q0 -70 28 -110l27 -37l-27 -33h-207l-780 1157v-745 q0 -123 20.5 -199t71.5 -143l27 -37l-27 -33h-389zM481 1726q145 199 264 199q47 0 104.5 -36t88.5 -36q57 0 139 80l70 -63q-141 -199 -262 -199q-49 0 -107.5 36t-87.5 36q-57 0 -137 -80z" />
<glyph unicode="&#xd2;" d="M72 733q0 334 174 550t502.5 216t505 -216t176.5 -550t-176.5 -548t-505 -214t-502.5 214t-174 548zM293 721.5q0 -277.5 116.5 -453.5t331.5 -176t340 180.5t125 429t-92 447.5q-47 104 -139 168.5t-215 64.5q-217 0 -342 -191.5t-125 -469zM547 1878q0 90 86 131 l319 -319l-59 -72l-231 115q-115 55 -115 145z" />
<glyph unicode="&#xd3;" d="M72 733q0 334 174 550t502.5 216t505 -216t176.5 -550t-176.5 -548t-505 -214t-502.5 214t-174 548zM293 721.5q0 -277.5 116.5 -453.5t331.5 -176t340 180.5t125 429t-92 447.5q-47 104 -139 168.5t-215 64.5q-217 0 -342 -191.5t-125 -469zM547 1690l319 319 q86 -41 86 -131t-114 -145l-232 -115z" />
<glyph unicode="&#xd4;" d="M72 733q0 334 174 550t502.5 216t505 -216t176.5 -550t-176.5 -548t-505 -214t-502.5 214t-174 548zM293 721.5q0 -277.5 116.5 -453.5t331.5 -176t340 180.5t125 429t-92 447.5q-47 104 -139 168.5t-215 64.5q-217 0 -342 -191.5t-125 -469zM469 1675q66 115 139.5 207 t114.5 117h55q37 -23 113 -117t139 -207l-65 -57l-215 170l-213 -170z" />
<glyph unicode="&#xd5;" d="M72 733q0 334 174 550t502.5 216t505 -216t176.5 -550t-176.5 -548t-505 -214t-502.5 214t-174 548zM293 721.5q0 -277.5 116.5 -453.5t331.5 -176t340 180.5t125 429t-92 447.5q-47 104 -139 168.5t-215 64.5q-217 0 -342 -191.5t-125 -469zM418 1726q145 199 264 199 q47 0 104.5 -36t87.5 -36q57 0 140 80l69 -63q-141 -199 -262 -199q-49 0 -107.5 36t-86.5 36q-57 0 -138 -80z" />
<glyph unicode="&#xd6;" d="M72 733q0 334 174 550t502.5 216t505 -216t176.5 -550t-176.5 -548t-505 -214t-502.5 214t-174 548zM293 721.5q0 -277.5 116.5 -453.5t331.5 -176t340 180.5t125 429t-92 447.5q-47 104 -139 168.5t-215 64.5q-217 0 -342 -191.5t-125 -469zM430 1800q0 39 44 87t82 48 t83 -47t45 -87t-45 -87t-82 -47t-82 47t-45 86zM817 1800q0 39 44 87t82 48t83 -47t45 -87t-45 -87t-82 -47t-82 47t-45 86z" />
<glyph unicode="&#xd7;" horiz-adv-x="1271" d="M229 434l295 297l-295 297l111 111l295 -297l297 297l110 -111l-297 -297l297 -297l-110 -110l-297 297l-295 -297z" />
<glyph unicode="&#xd8;" d="M72 733q0 334 174 550t504 216q98 0 188 -22l45 122h147l-61 -172q176 -88 268.5 -272t92.5 -422q0 -334 -176.5 -548t-503.5 -214q-100 0 -191 23l-43 -123h-145l59 168q-176 88 -267 271t-91 423zM293 717q0 -367 188 -533l416 1174q-70 25 -137 24q-217 0 -342 -191 t-125 -474zM602 115q68 -23 139 -23q215 0 340 180.5t125 454.5q0 154 -45 308.5t-143 246.5z" />
<glyph unicode="&#xd9;" horiz-adv-x="1513" d="M49 1401l25 69h448l27 -32l-27 -37q-51 -68 -71.5 -143.5t-20.5 -198.5v-608q0 -162 102.5 -256.5t258 -94.5t258 94.5t102.5 256.5v747q0 94 -26.5 131t-104.5 60l-47 12l24 69h389l27 -32l-27 -37q-51 -68 -71.5 -143.5t-20.5 -198.5v-608q0 -242 -147.5 -361 t-385 -119t-386 119t-148.5 361v747q0 94 -26.5 131t-104.5 60zM553 1878q0 90 86 131l319 -319l-59 -72l-231 115q-115 55 -115 145z" />
<glyph unicode="&#xda;" horiz-adv-x="1513" d="M49 1401l25 69h448l27 -32l-27 -37q-51 -68 -71.5 -143.5t-20.5 -198.5v-608q0 -162 102.5 -256.5t258 -94.5t258 94.5t102.5 256.5v747q0 94 -26.5 131t-104.5 60l-47 12l24 69h389l27 -32l-27 -37q-51 -68 -71.5 -143.5t-20.5 -198.5v-608q0 -242 -147.5 -361 t-385 -119t-386 119t-148.5 361v747q0 94 -26.5 131t-104.5 60zM627 1690l319 319q86 -41 86 -131t-114 -145l-232 -115z" />
<glyph unicode="&#xdb;" horiz-adv-x="1513" d="M49 1401l25 69h448l27 -32l-27 -37q-51 -68 -71.5 -143.5t-20.5 -198.5v-608q0 -162 102.5 -256.5t258 -94.5t258 94.5t102.5 256.5v747q0 94 -26.5 131t-104.5 60l-47 12l24 69h389l27 -32l-27 -37q-51 -68 -71.5 -143.5t-20.5 -198.5v-608q0 -242 -147.5 -361 t-385 -119t-386 119t-148.5 361v747q0 94 -26.5 131t-104.5 60zM510 1675q66 115 139.5 207t114.5 117h55q37 -23 113 -117t139 -207l-65 -57l-215 170l-213 -170z" />
<glyph unicode="&#xdc;" horiz-adv-x="1513" d="M49 1401l25 69h448l27 -32l-27 -37q-51 -68 -71.5 -143.5t-20.5 -198.5v-608q0 -162 102.5 -256.5t258 -94.5t258 94.5t102.5 256.5v747q0 94 -26.5 131t-104.5 60l-47 12l24 69h389l27 -32l-27 -37q-51 -68 -71.5 -143.5t-20.5 -198.5v-608q0 -242 -147.5 -361 t-385 -119t-386 119t-148.5 361v747q0 94 -26.5 131t-104.5 60zM463 1800q0 39 44 87t82 48t83 -47t45 -87t-45 -87t-82 -47t-82 47t-45 86zM850 1800q0 39 44 87t82 48t83 -47t45 -87t-45 -87t-82 -47t-82 47t-45 86z" />
<glyph unicode="&#xdd;" horiz-adv-x="1282" d="M10 1438l27 32h461l24 -69l-47 -12q-49 -12 -70.5 -33t-21.5 -48.5t63 -138.5l222 -387l231 414q25 45 25 85t-26 68.5t-60 39.5l-47 12l24 69h389l27 -32l-31 -37q-72 -86 -145 -217l-318 -563v-349q0 -92 29 -131t106 -59l48 -12l-25 -70h-449l-26 33l26 37 q51 72 74 146.5t23 195.5v192l-328 576q-100 178 -205 258zM535 1690l319 319q86 -41 86 -131t-115 -145l-231 -115z" />
<glyph unicode="&#xde;" horiz-adv-x="1220" d="M82 70l47 12q78 23 104.5 59.5t26.5 130.5v926q0 94 -26.5 131t-104.5 60l-47 12l24 69h449l27 -32l-27 -37q-70 -94 -86 -211q115 41 227 41q209 0 346.5 -140.5t137.5 -347t-125 -342t-367 -135.5q-76 0 -128 18.5t-52 60.5t33 42q2 0 32.5 -7t67.5 -7q154 0 240 98 t86 267t-85 276.5t-252 107.5t-167 -102v-762q0 -88 24.5 -123t100.5 -57l43 -12l-23 -66h-502z" />
<glyph unicode="&#xdf;" horiz-adv-x="1300" d="M27 70l47 12q78 23 104.5 59.5t26.5 130.5v805q0 250 141 387.5t371 137.5q133 0 219 -68t86 -195q0 -68 -43 -135t-94 -114q-135 -127 -135 -224.5t108 -152.5l146 -74q260 -133 260 -342q0 -133 -105.5 -229.5t-256 -96.5t-247.5 52q-18 12 -18 52t31 40 q4 0 71.5 -20.5t148.5 -20.5t138 41t57 125q0 145 -202 247l-154 78q-84 53 -122 105.5t-38 129.5t66.5 166t134.5 187t68 186q0 156 -168 156q-133 0 -196.5 -104.5t-63.5 -280.5v-698q0 -123 20.5 -199t71.5 -143l26 -37l-26 -33h-449z" />
<glyph unicode="&#xe0;" horiz-adv-x="1236" d="M92 483q0 252 143.5 406.5t387.5 154.5q70 0 210 -23.5t199 -27.5l23 -26l-25 -37q-27 -41 -26 -80v-670q0 -63 61 -63q49 0 102 37l39 -54q-117 -129 -227 -129q-84 0 -121 51.5t-37 165.5q-155 -217 -362 -217q-154 0 -260.5 130t-106.5 382zM307 511q0 -198 66.5 -290 t167.5 -92q172 0 280 186v553q-94 63 -200 64q-150 0 -232 -111.5t-82 -309.5zM415.5 1425.5q0.5 90.5 86.5 130.5l319 -319l-59 -72l-232 115q-115 55 -114.5 145.5z" />
<glyph unicode="&#xe1;" horiz-adv-x="1236" d="M92 483q0 252 143.5 406.5t387.5 154.5q70 0 210 -23.5t199 -27.5l23 -26l-25 -37q-27 -41 -26 -80v-670q0 -63 61 -63q49 0 102 37l39 -54q-117 -129 -227 -129q-84 0 -121 51.5t-37 165.5q-155 -217 -362 -217q-154 0 -260.5 130t-106.5 382zM307 511q0 -198 66.5 -290 t167.5 -92q172 0 280 186v553q-94 63 -200 64q-150 0 -232 -111.5t-82 -309.5zM416 1237l319 319q86 -41 86 -131t-114 -145l-232 -115z" />
<glyph unicode="&#xe2;" horiz-adv-x="1236" d="M92 483q0 252 143.5 406.5t387.5 154.5q70 0 210 -23.5t199 -27.5l23 -26l-25 -37q-27 -41 -26 -80v-670q0 -63 61 -63q49 0 102 37l39 -54q-117 -129 -227 -129q-84 0 -121 51.5t-37 165.5q-155 -217 -362 -217q-154 0 -260.5 130t-106.5 382zM307 511q0 -198 66.5 -290 t167.5 -92q172 0 280 186v553q-94 63 -200 64q-150 0 -232 -111.5t-82 -309.5zM338 1223q66 115 139.5 206.5t114.5 116.5h55q37 -23 113 -117t139 -206l-65 -58l-216 170l-212 -170z" />
<glyph unicode="&#xe3;" horiz-adv-x="1236" d="M92 483q0 252 143.5 406.5t387.5 154.5q70 0 210 -23.5t199 -27.5l23 -26l-25 -37q-27 -41 -26 -80v-670q0 -63 61 -63q49 0 102 37l39 -54q-117 -129 -227 -129q-84 0 -121 51.5t-37 165.5q-155 -217 -362 -217q-154 0 -260.5 130t-106.5 382zM285 1274q145 199 264 199 q47 0 104.5 -36t87.5 -36q57 0 140 80l69 -64q-141 -198 -262 -198q-49 0 -107.5 35.5t-86.5 35.5q-57 0 -138 -80zM307 511q0 -198 66.5 -290t167.5 -92q172 0 280 186v553q-94 63 -200 64q-150 0 -232 -111.5t-82 -309.5z" />
<glyph unicode="&#xe4;" horiz-adv-x="1236" d="M92 483q0 252 143.5 406.5t387.5 154.5q70 0 210 -23.5t199 -27.5l23 -26l-25 -37q-27 -41 -26 -80v-670q0 -63 61 -63q49 0 102 37l39 -54q-117 -129 -227 -129q-84 0 -121 51.5t-37 165.5q-155 -217 -362 -217q-154 0 -260.5 130t-106.5 382zM297 1347.5q0 38.5 44 87 t82 48.5t83 -47t45 -87t-45 -87.5t-82 -47.5t-82 47.5t-45 86zM307 511q0 -198 66.5 -290t167.5 -92q172 0 280 186v553q-94 63 -200 64q-150 0 -232 -111.5t-82 -309.5zM684 1347.5q0 38.5 44 87t82 48.5t83 -47t45 -87t-45 -87.5t-82 -47.5t-82 47.5t-45 86z" />
<glyph unicode="&#xe5;" horiz-adv-x="1236" d="M92 483q0 252 143.5 406.5t387.5 154.5q70 0 210 -23.5t199 -27.5l23 -26l-25 -37q-27 -41 -26 -80v-670q0 -63 61 -63q49 0 102 37l39 -54q-117 -129 -227 -129q-84 0 -121 51.5t-37 165.5q-155 -217 -362 -217q-154 0 -260.5 130t-106.5 382zM307 511q0 -198 66.5 -290 t167.5 -92q172 0 280 186v553q-94 63 -200 64q-150 0 -232 -111.5t-82 -309.5zM385 1347.5q0 96.5 59.5 158t172 61.5t173 -61.5t60.5 -158t-60.5 -157t-173 -60.5t-172 60.5t-59.5 157zM528 1347.5q0 -51.5 22.5 -85t64.5 -33.5t66 33.5t24 85t-24 85t-66 33.5t-64.5 -33.5 t-22.5 -85z" />
<glyph unicode="&#xe6;" horiz-adv-x="1771" d="M92 279.5q0 132.5 105.5 240t285.5 107.5q72 0 159 -24.5t87 -72.5q0 -16 -9 -30.5t-17.5 -14.5t-53.5 13.5t-102 13.5q-123 0 -191.5 -71.5t-68.5 -159.5t51 -143.5t143 -55.5q141 0 220 113.5t79 310t-77.5 300t-225.5 103.5q-98 0 -166.5 -22.5t-99.5 -46t-42 -23.5 t-29.5 19.5t-18.5 41t48 60.5t145 72.5t206 33.5q244 0 375 -186q147 186 416 186q168 0 258 -88t90 -219t-105.5 -235.5t-285.5 -104.5q-66 0 -146 24.5t-80 72.5q0 16 9.5 30.5t16.5 14.5t47 -13.5t89 -13.5q123 0 191.5 69.5t68.5 156.5t-51 145.5t-143 58.5 q-131 0 -205 -115.5t-74 -314.5t78 -302.5t242 -103.5t282 117q8 8 21.5 8t32 -19t18.5 -34.5t-8 -23.5q-158 -182 -406 -183q-141 0 -247.5 64.5t-163.5 181.5q-53 -117 -155.5 -181.5t-257.5 -64.5t-245 88t-90 220.5z" />
<glyph unicode="&#xe7;" horiz-adv-x="1042" d="M92 506q0 246 135 392t361 146q158 0 259 -76.5t101 -197.5q0 -88 -56 -144.5t-144 -56.5q-39 0 -39 23q0 4 12 22q37 59 37 143.5t-52.5 132.5t-140.5 48q-117 0 -188.5 -114.5t-71.5 -303t85 -300t231.5 -111.5t269.5 102q6 6 20.5 6t32 -18.5t17.5 -35t-7 -22.5 q-147 -170 -368 -170q-18 0 -51 4l-91 -118q35 8 78 8q98 0 165 -59.5t67 -165t-80 -175t-184.5 -69.5t-171 42t-66.5 105.5t38 96t83 32.5t45 -20q0 -4 -14.5 -28.5t-14.5 -60.5t24.5 -58.5t71.5 -22.5t82 46t35 108.5t-36 107.5t-96 45t-118 -35l-41 37l150 195 q-166 41 -267.5 183t-101.5 337z" />
<glyph unicode="&#xe8;" horiz-adv-x="1083" d="M92 500.5q0 242.5 145.5 393t385.5 150.5q168 0 258 -88t90 -219t-105.5 -235.5t-285.5 -104.5q-66 0 -146 24.5t-80 72.5q0 16 9.5 30.5t16.5 14.5t47 -13.5t89 -13.5q123 0 191.5 69.5t68.5 156.5t-51 145.5t-143 58.5q-131 0 -205 -115.5t-74 -314.5t78 -302.5 t241.5 -103.5t282.5 117q8 8 21.5 8t32 -19t18.5 -34.5t-8 -23.5q-158 -183 -406 -183q-215 0 -343 143.5t-128 386zM338 1425.5q0 90.5 86 130.5l319 -319l-59 -72l-231 115q-115 55 -115 145.5z" />
<glyph unicode="&#xe9;" horiz-adv-x="1083" d="M92 500.5q0 242.5 145.5 393t385.5 150.5q168 0 258 -88t90 -219t-105.5 -235.5t-285.5 -104.5q-66 0 -146 24.5t-80 72.5q0 16 9.5 30.5t16.5 14.5t47 -13.5t89 -13.5q123 0 191.5 69.5t68.5 156.5t-51 145.5t-143 58.5q-131 0 -205 -115.5t-74 -314.5t78 -302.5 t241.5 -103.5t282.5 117q8 8 21.5 8t32 -19t18.5 -34.5t-8 -23.5q-158 -183 -406 -183q-215 0 -343 143.5t-128 386zM338 1237l319 319q86 -41 86 -131t-114 -145l-232 -115z" />
<glyph unicode="&#xea;" horiz-adv-x="1083" d="M92 500.5q0 242.5 145.5 393t385.5 150.5q168 0 258 -88t90 -219t-105.5 -235.5t-285.5 -104.5q-66 0 -146 24.5t-80 72.5q0 16 9.5 30.5t16.5 14.5t47 -13.5t89 -13.5q123 0 191.5 69.5t68.5 156.5t-51 145.5t-143 58.5q-131 0 -205 -115.5t-74 -314.5t78 -302.5 t241.5 -103.5t282.5 117q8 8 21.5 8t32 -19t18.5 -34.5t-8 -23.5q-158 -183 -406 -183q-215 0 -343 143.5t-128 386zM260 1223q66 115 139.5 206.5t114.5 116.5h55q37 -23 113 -117t139 -206l-65 -58l-215 170l-213 -170z" />
<glyph unicode="&#xeb;" horiz-adv-x="1083" d="M92 500.5q0 242.5 145.5 393t385.5 150.5q168 0 258 -88t90 -219t-105.5 -235.5t-285.5 -104.5q-66 0 -146 24.5t-80 72.5q0 16 9.5 30.5t16.5 14.5t47 -13.5t89 -13.5q123 0 191.5 69.5t68.5 156.5t-51 145.5t-143 58.5q-131 0 -205 -115.5t-74 -314.5t78 -302.5 t241.5 -103.5t282.5 117q8 8 21.5 8t32 -19t18.5 -34.5t-8 -23.5q-158 -183 -406 -183q-215 0 -343 143.5t-128 386zM221 1347.5q0 38.5 44 87t82 48.5t83 -47t45 -87t-45 -87.5t-82 -47.5t-82 47.5t-45 86zM608 1347.5q0 38.5 44 87t82 48.5t83 -47t45 -87t-45 -87.5 t-82 -47.5t-82 47.5t-45 86z" />
<glyph unicode="&#xec;" horiz-adv-x="638" d="M72 922q59 53 135 87.5t121 34.5q80 0 80 -65l-2 -799q0 -69 61 -69q49 0 102 43l39 -54q-117 -129 -229 -129q-84 0 -121 51.5t-37 165.5v635q0 45 -41 45h-90zM116.5 1425.5q0.5 90.5 86.5 130.5l319 -319l-59 -72l-232 115q-115 55 -114.5 145.5z" />
<glyph unicode="&#xed;" horiz-adv-x="638" d="M72 922q59 53 135 87.5t121 34.5q80 0 80 -65l-2 -799q0 -69 61 -69q49 0 102 43l39 -54q-117 -129 -229 -129q-84 0 -121 51.5t-37 165.5v635q0 45 -41 45h-90zM117 1237l319 319q86 -41 86 -131t-114 -145l-232 -115z" />
<glyph unicode="&#xee;" horiz-adv-x="638" d="M39 1223q66 115 139.5 206.5t114.5 116.5h55q37 -23 113 -117t139 -206l-65 -58l-216 170l-213 -170zM72 922q59 53 135 87.5t121 34.5q80 0 80 -65l-2 -799q0 -69 61 -69q49 0 102 43l39 -54q-117 -129 -229 -129q-84 0 -121 51.5t-37 165.5v635q0 45 -41 45h-90z" />
<glyph unicode="&#xef;" horiz-adv-x="638" d="M0 1347.5q0 38.5 44 87t82 48.5t83 -47t45 -87t-45 -87.5t-82 -47.5t-82 47.5t-45 86zM72 922q59 53 135 87.5t121 34.5q80 0 80 -65l-2 -799q0 -69 61 -69q49 0 102 43l39 -54q-117 -129 -229 -129q-84 0 -121 51.5t-37 165.5v635q0 45 -41 45h-90zM387 1347.5 q0 38.5 44 87t82 48.5t83 -47t45 -87t-45 -87.5t-82 -47.5t-82 47.5t-45 86z" />
<glyph unicode="&#xf0;" horiz-adv-x="1196" d="M88 487.5q0 237.5 137 377t373 139.5q174 0 285 -123q-35 184 -95 333l-202 -100q0 82 8 118t35 48l102 51q-109 195 -248 195q-74 0 -115.5 -48t-41.5 -105.5t13 -95.5t30 -56q45 -47 45 -56q0 -20 -33 -20q-106 0 -167.5 64.5t-61.5 160.5t87 172t246 76 q225 0 379 -219l281 139q0 -84 -8.5 -118t-34.5 -48l-170 -86q88 -174 132 -397.5t44 -401.5q0 -236 -138.5 -376t-373 -140t-371.5 139.5t-137 377zM301 490.5q0 -185.5 90 -297t228.5 -111.5t218.5 104.5t80 287.5t-91.5 303t-229.5 120t-217 -110.5t-79 -296z" />
<glyph unicode="&#xf1;" horiz-adv-x="1318" d="M82 901q59 53 136 88t120 35q80 0 80 -66v-219q53 133 159.5 219t236.5 86t195.5 -88t65.5 -280v-496q0 -70 62 -69q47 0 102 43l39 -54q-117 -129 -229 -129q-84 0 -121 51.5t-37 165.5v488q0 209 -176 209q-133 0 -215 -154.5t-82 -402.5q0 -172 65 -265l25 -32 l-25 -31h-358l-23 63l43 11q51 12 68.5 44t17.5 109v576q0 45 -41 45h-90zM326 1274q145 199 264 199q47 0 104.5 -36t87.5 -36q57 0 140 80l69 -64q-141 -198 -262 -198q-49 0 -107.5 35.5t-86.5 35.5q-57 0 -138 -80z" />
<glyph unicode="&#xf2;" horiz-adv-x="1183" d="M92 509q0 247 135 391t364.5 144t365 -144t135.5 -391t-135.5 -392.5t-365 -145.5t-364.5 145.5t-135 392.5zM305 504.5q0 -193.5 76 -308t205 -114.5t210 115.5t80.5 283.5t-57.5 299q-29 70 -86 114t-135 44q-131 0 -212 -120t-81 -313.5zM377 1425.5q0 90.5 86 130.5 l319 -319l-59 -72l-231 115q-115 55 -115 145.5z" />
<glyph unicode="&#xf3;" horiz-adv-x="1183" d="M92 509q0 247 135 391t364.5 144t365 -144t135.5 -391t-135.5 -392.5t-365 -145.5t-364.5 145.5t-135 392.5zM305 504.5q0 -193.5 76 -308t205 -114.5t210 115.5t80.5 283.5t-57.5 299q-29 70 -86 114t-135 44q-131 0 -212 -120t-81 -313.5zM432 1237l320 319 q86 -41 86 -131t-115 -145l-231 -115z" />
<glyph unicode="&#xf4;" horiz-adv-x="1183" d="M92 509q0 247 135 391t364.5 144t365 -144t135.5 -391t-135.5 -392.5t-365 -145.5t-364.5 145.5t-135 392.5zM305 504.5q0 -193.5 76 -308t205 -114.5t210 115.5t80.5 283.5t-57.5 299q-29 70 -86 114t-135 44q-131 0 -212 -120t-81 -313.5zM315 1223q66 115 139.5 206.5 t114.5 116.5h56q37 -23 112.5 -117t139.5 -206l-66 -58l-215 170l-213 -170z" />
<glyph unicode="&#xf5;" horiz-adv-x="1183" d="M92 509q0 247 135 391t364.5 144t365 -144t135.5 -391t-135.5 -392.5t-365 -145.5t-364.5 145.5t-135 392.5zM264 1274q145 199 264 199q47 0 104.5 -36t88.5 -36q57 0 139 80l70 -64q-141 -198 -262 -198q-49 0 -107.5 35.5t-87.5 35.5q-57 0 -137 -80zM305 504.5 q0 -193.5 76 -308t205 -114.5t210 115.5t80.5 283.5t-57.5 299q-29 70 -86 114t-135 44q-131 0 -212 -120t-81 -313.5z" />
<glyph unicode="&#xf6;" horiz-adv-x="1183" d="M92 509q0 247 135 391t364.5 144t365 -144t135.5 -391t-135.5 -392.5t-365 -145.5t-364.5 145.5t-135 392.5zM276 1347.5q0 38.5 44.5 87t82 48.5t82.5 -47t45 -87t-45 -87.5t-81.5 -47.5t-82 47.5t-45.5 86zM305 504.5q0 -193.5 76 -308t205 -114.5t210 115.5 t80.5 283.5t-57.5 299q-29 70 -86 114t-135 44q-131 0 -212 -120t-81 -313.5zM664 1347.5q0 38.5 44 87t81.5 48.5t83 -47t45.5 -87t-45.5 -87.5t-82 -47.5t-81.5 47.5t-45 86z" />
<glyph unicode="&#xf7;" horiz-adv-x="1271" d="M203 653v156h866v-156h-866zM508 389q0 39 44 87t82 48t83 -47t45 -87t-45 -87t-82 -47t-82 47t-45 86zM508 1071q0 39 44 87t82 48t83 -47t45 -87t-45 -87t-82 -47t-82 47t-45 86z" />
<glyph unicode="&#xf8;" horiz-adv-x="1183" d="M92 508q0 248 135 392t365 144q76 0 135 -14l45 127h111l-58 -162q127 -61 197 -186t70 -301q0 -246 -135.5 -391.5t-364.5 -145.5q-66 0 -127 13l-43 -123h-109l54 153q-131 59 -203 187.5t-72 306.5zM305 482q0 -216 111 -330l272 768q-47 18 -90 18q-131 0 -212 -120 t-81 -336zM506 94q37 -12 80 -12q129 0 210 115.5t81 324.5t-103 330z" />
<glyph unicode="&#xf9;" horiz-adv-x="1257" d="M61 922q53 53 130 87.5t124 34.5q82 0 82 -65v-621q0 -250 197 -249q137 0 214 118.5t77 299t-17.5 265.5t-62.5 162l-25 33l25 31l250 26v-864q0 -63 59 -63q47 0 100 37l39 -54q-47 -57 -109.5 -93t-115.5 -36q-158 0 -158 197q-47 -90 -140 -143.5t-223 -53.5 t-213 89.5t-83 250.5v512q0 45 -41 45h-90zM407.5 1425.5q0.5 90.5 86.5 130.5l319 -319l-59 -72l-232 115q-115 55 -114.5 145.5z" />
<glyph unicode="&#xfa;" horiz-adv-x="1257" d="M61 922q53 53 130 87.5t124 34.5q82 0 82 -65v-621q0 -250 197 -249q137 0 214 118.5t77 299t-17.5 265.5t-62.5 162l-25 33l25 31l250 26v-864q0 -63 59 -63q47 0 100 37l39 -54q-47 -57 -109.5 -93t-115.5 -36q-158 0 -158 197q-47 -90 -140 -143.5t-223 -53.5 t-213 89.5t-83 250.5v512q0 45 -41 45h-90zM483 1237l320 319q86 -41 86 -131t-115 -145l-231 -115z" />
<glyph unicode="&#xfb;" horiz-adv-x="1257" d="M61 922q53 53 130 87.5t124 34.5q82 0 82 -65v-621q0 -250 197 -249q137 0 214 118.5t77 299t-17.5 265.5t-62.5 162l-25 33l25 31l250 26v-864q0 -63 59 -63q47 0 100 37l39 -54q-47 -57 -109.5 -93t-115.5 -36q-158 0 -158 197q-47 -90 -140 -143.5t-223 -53.5 t-213 89.5t-83 250.5v512q0 45 -41 45h-90zM348 1223q66 115 139.5 206.5t114.5 116.5h55q37 -23 113 -117t139 -206l-65 -58l-215 170l-213 -170z" />
<glyph unicode="&#xfc;" horiz-adv-x="1257" d="M61 922q53 53 130 87.5t124 34.5q82 0 82 -65v-621q0 -250 197 -249q137 0 214 118.5t77 299t-17.5 265.5t-62.5 162l-25 33l25 31l250 26v-864q0 -63 59 -63q47 0 100 37l39 -54q-47 -57 -109.5 -93t-115.5 -36q-158 0 -158 197q-47 -90 -140 -143.5t-223 -53.5 t-213 89.5t-83 250.5v512q0 45 -41 45h-90zM307 1347.5q0 38.5 44 87t82 48.5t83 -47t45 -87t-45 -87.5t-82 -47.5t-82 47.5t-45 86zM694 1347.5q0 38.5 44 87t82 48.5t83 -47t45 -87t-45 -87.5t-82 -47.5t-82 47.5t-45 86z" />
<glyph unicode="&#xfd;" horiz-adv-x="1249" d="M61 924q53 53 130 88t124 35q82 0 82 -66v-563q0 -250 193 -250q137 0 214 103.5t77 278.5t-14.5 257t-65.5 149l-25 33l25 31l250 27v-1092q0 -252 -122 -388t-333 -136q-168 0 -259 87t-91 197.5t69.5 183t190.5 72.5q39 0 39 -22q0 -8 -24.5 -33t-50.5 -74t-26 -122.5 t48.5 -128t130.5 -54.5q127 0 186 104.5t59 280.5v303q-47 -90 -141 -142t-223 -52t-211 89t-82 251v454q0 45 -41 45h-90zM483 1237l320 319q86 -41 86 -131t-115 -145l-231 -115z" />
<glyph unicode="&#xfe;" horiz-adv-x="1218" d="M61 1452v68q33 29 125.5 55.5t159.5 26.5q49 -1 49 -95v-592q133 129 310.5 129t299 -138t121.5 -372.5t-128 -398.5t-322 -164q-123 0 -205 56q-18 12 -18 36q0 51 30 52q2 0 46 -16.5t100 -16.5q123 0 201.5 121t78.5 302t-78.5 292.5t-204.5 111.5t-231 -80v-1146 q0 -78 17.5 -110t68.5 -44l43 -10l-22 -64h-357l-24 31l24 33q66 92 66 264v1579q0 57 -43 68z" />
<glyph unicode="&#xff;" horiz-adv-x="1249" d="M61 924q53 53 130 88t124 35q82 0 82 -66v-563q0 -250 193 -250q137 0 214 103.5t77 278.5t-14.5 257t-65.5 149l-25 33l25 31l250 27v-1092q0 -252 -122 -388t-333 -136q-168 0 -259 87t-91 197.5t69.5 183t190.5 72.5q39 0 39 -22q0 -8 -24.5 -33t-50.5 -74t-26 -122.5 t48.5 -128t130.5 -54.5q127 0 186 104.5t59 280.5v303q-47 -90 -141 -142t-223 -52t-211 89t-82 251v454q0 45 -41 45h-90zM303 1347.5q0 38.5 44 87t82 48.5t83 -47t45 -87t-45 -87.5t-82 -47.5t-82 47.5t-45 86zM690 1347.5q0 38.5 44 87t82 48.5t83 -47t45 -87t-45 -87.5 t-82 -47.5t-82 47.5t-45 86z" />
<glyph unicode="&#x152;" horiz-adv-x="1957" d="M72 733.5q0 321.5 174 529t504 207.5h753q176 0 234 43l37 27l32 -27v-364l-69 -25l-13 47q-29 111 -71.5 147t-151.5 36h-198q-80 0 -106 -31t-26 -125v-393h261q94 0 161 94l17 23l41 -23v-350l-70 -25l-12 47q-18 70 -64.5 93.5t-158.5 23.5h-175v-416 q0 -94 26 -124.5t106 -30.5h221q109 0 151.5 35.5t71.5 146.5l12 47l70 -24v-351l-41 -22l-16 22q-23 29 -86 29h-936q-330 0 -504 206t-174 527.5zM293 722q0 -263 129 -446.5t346 -183.5q111 0 201 51v1153q-111 84 -235 84t-212 -56t-137 -153q-92 -186 -92 -449z" />
<glyph unicode="&#x153;" horiz-adv-x="1871" d="M92 509q0 247 135 391t365 144q264 0 399 -190q145 190 420 190q168 0 258 -88t90 -219t-105.5 -235.5t-285.5 -104.5q-66 0 -145.5 24.5t-79.5 72.5q0 16 9 30.5t16.5 14.5t47 -13.5t89.5 -13.5q123 0 191.5 69.5t68.5 156.5t-51.5 145.5t-143.5 58.5 q-129 0 -202.5 -110.5t-75.5 -315.5v-33q4 -178 80.5 -277.5t239.5 -99.5t282 117q8 8 21.5 8t31.5 -19t18 -34.5t-8 -23.5q-158 -182 -402.5 -182.5t-373.5 175.5q-135 -176 -377 -176t-377 145.5t-135 392.5zM305 504.5q0 -193.5 76 -308t205 -114.5t210 115.5t80.5 283.5 t-57.5 299q-29 70 -86 114t-135 44q-131 0 -212 -120t-81 -313.5z" />
<glyph unicode="&#x178;" horiz-adv-x="1282" d="M10 1438l27 32h461l24 -69l-47 -12q-49 -12 -70.5 -33t-21.5 -48.5t63 -138.5l222 -387l231 414q25 45 25 85t-26 68.5t-60 39.5l-47 12l24 69h389l27 -32l-31 -37q-72 -86 -145 -217l-318 -563v-349q0 -92 29 -131t106 -59l48 -12l-25 -70h-449l-26 33l26 37 q51 72 74 146.5t23 195.5v192l-328 576q-100 178 -205 258zM375 1800q0 39 44 87t82 48t83 -47t45 -87t-45 -87t-82 -47t-82 47t-45 86zM762 1800q0 39 44 87t82 48t83 -47t45 -87t-45 -87t-82 -47t-82 47t-45 86z" />
<glyph unicode="&#x2c6;" horiz-adv-x="765" d="M102 1223q66 115 139.5 206.5t114.5 116.5h56q37 -23 112.5 -117t139.5 -206l-66 -58l-215 170l-213 -170z" />
<glyph unicode="&#x2dc;" horiz-adv-x="835" d="M84 1274q145 199 264 199q47 0 104.5 -36t88.5 -36q57 0 139 80l70 -64q-142 -198 -263 -198q-49 0 -107 35.5t-87 35.5q-57 0 -137 -80z" />
<glyph unicode="&#x2000;" horiz-adv-x="1009" />
<glyph unicode="&#x2001;" horiz-adv-x="2019" />
<glyph unicode="&#x2002;" horiz-adv-x="1009" />
<glyph unicode="&#x2003;" horiz-adv-x="2019" />
<glyph unicode="&#x2004;" horiz-adv-x="673" />
<glyph unicode="&#x2005;" horiz-adv-x="504" />
<glyph unicode="&#x2006;" horiz-adv-x="336" />
<glyph unicode="&#x2007;" horiz-adv-x="336" />
<glyph unicode="&#x2008;" horiz-adv-x="252" />
<glyph unicode="&#x2009;" horiz-adv-x="403" />
<glyph unicode="&#x200a;" horiz-adv-x="112" />
<glyph unicode="&#x2010;" horiz-adv-x="727" d="M68 516q0 100 53 143l538 21q0 -102 -53 -143z" />
<glyph unicode="&#x2011;" horiz-adv-x="727" d="M68 516q0 100 53 143l538 21q0 -102 -53 -143z" />
<glyph unicode="&#x2012;" horiz-adv-x="727" d="M68 516q0 100 53 143l538 21q0 -102 -53 -143z" />
<glyph unicode="&#x2013;" horiz-adv-x="1595" d="M102 516q0 100 54 143l1339 21q0 -102 -53 -143z" />
<glyph unicode="&#x2014;" horiz-adv-x="1863" d="M102 516q0 100 54 143l1603 21q0 -102 -53 -143z" />
<glyph unicode="&#x2018;" horiz-adv-x="460" d="M70 1210q0 57 42 120t126 153l79 86l60 -39l-94 -184q-25 -49 -25 -87t47 -73l37 -25l10 -49l-35 -14q-63 -25 -114 -25q-133 0 -133 137z" />
<glyph unicode="&#x2019;" horiz-adv-x="460" d="M84 1108l94 184q25 49 25 87t-47 73l-37 25l-10 49l34 14q64 25 115 25q133 0 133 -138q0 -57 -42 -119.5t-126 -152.5l-80 -86z" />
<glyph unicode="&#x201a;" horiz-adv-x="391" d="M14 -213l95 184q25 49 24.5 87t-47.5 73l-37 25l-10 49l35 14q63 25 114 25q133 0 134 -138q0 -57 -42 -119.5t-126 -152.5l-80 -86z" />
<glyph unicode="&#x201c;" horiz-adv-x="776" d="M70 1210q0 57 42 120t126 153l79 86l60 -39l-94 -184q-25 -49 -25 -87t47 -73l37 -25l10 -49l-35 -14q-63 -25 -114 -25q-133 0 -133 137zM385 1210q0 57 42 120t126 153l80 86l59 -39l-94 -184q-25 -49 -25 -87t48 -73l36 -25l11 -49l-35 -14q-64 -25 -115 -25 q-133 0 -133 137z" />
<glyph unicode="&#x201d;" horiz-adv-x="776" d="M84 1108l94 184q25 49 25 87t-47 73l-37 25l-10 49l34 14q64 25 115 25q133 0 133 -138q0 -57 -42 -119.5t-126 -152.5l-80 -86zM399 1108l95 184q25 49 24.5 87t-47.5 73l-37 25l-10 49l35 14q63 25 114 25q133 0 134 -138q0 -57 -42 -119.5t-126 -152.5l-80 -86z" />
<glyph unicode="&#x201e;" horiz-adv-x="706" d="M14 -211l95 184q25 49 24.5 87t-47.5 73l-37 25l-10 49l35 14q63 25 114 25q133 0 134 -137q0 -57 -42 -120t-126 -153l-80 -86zM330 -211l94 184q25 49 25 87t-48 73l-36 25l-11 49l35 14q64 25 115 25q133 0 133 -137q0 -57 -42 -120t-126 -153l-80 -86z" />
<glyph unicode="&#x2022;" horiz-adv-x="544" d="M100 620.5q0 53.5 58.5 118t109.5 64.5t112.5 -64.5t61.5 -118t-61.5 -117t-111.5 -63.5t-109.5 63.5t-59.5 117z" />
<glyph unicode="&#x2026;" horiz-adv-x="1173" d="M68 104.5q0 38.5 44 87t81.5 48.5t83 -47.5t45.5 -87t-45.5 -87t-82 -47.5t-81.5 47.5t-45 86zM459 104.5q0 38.5 44 87t82 48.5t83 -47.5t45 -87t-45 -87t-82 -47.5t-82 47.5t-45 86zM850 104.5q0 38.5 44 87t82 48.5t83 -47.5t45 -87t-45 -87t-82 -47.5t-82 47.5 t-45 86z" />
<glyph unicode="&#x202f;" horiz-adv-x="403" />
<glyph unicode="&#x2039;" horiz-adv-x="608" d="M102 570.5q0 35.5 46.5 120.5t181.5 304q109 -8 176 -94q-45 -80 -281 -330q233 -246 281 -329q-66 -86 -176 -95q-137 224 -182.5 306t-45.5 117.5z" />
<glyph unicode="&#x203a;" horiz-adv-x="608" d="M102 242q47 84 281 329q-236 250 -281 330q68 86 177 94q135 -219 181 -304t46 -120.5t-45 -117.5t-182 -306q-111 8 -177 95z" />
<glyph unicode="&#x205f;" horiz-adv-x="504" />
<glyph unicode="&#x20ac;" horiz-adv-x="1263" d="M-14 477q0 94 47 129h127q-4 35 -4 103.5t2 99.5h-172q0 94 47 129h141q49 254 200.5 407.5t391.5 153.5q184 0 284.5 -83t100.5 -184.5t-61.5 -166t-167.5 -64.5q-33 0 -33 21q0 8 31 41q57 61 57 143t-57.5 130t-153.5 48q-160 0 -251 -124.5t-124 -321.5h395 q0 -90 -49 -129h-358q-2 -27 -2 -94.5t4 -108.5h405q0 -90 -49 -129h-342q63 -391 336 -391q98 0 172 59.5t74 161.5q0 55 -23 107l-24 49q0 20 7 24.5t36 4.5q90 0 147.5 -55.5t57.5 -145.5q0 -150 -133.5 -235t-307.5 -85q-233 0 -373.5 136.5t-187.5 369.5h-190z" />
<glyph unicode="&#x2122;" horiz-adv-x="2215" d="M205 1270v211l26 22q68 -33 134 -33h409q66 0 133 33l25 -22v-211q-18 -33 -78 -33l-31 149h-180v-704l121 -27q0 -47 -29 -73h-350v55l92 29q20 6 21 34v686h-183l-30 -149q-61 0 -80 33zM985 582v55l80 29q20 6 20 34v670l-98 29q0 47 33 71h213l264 -600l135 301 q90 201 137 299h242v-57l-78 -29q-20 -6 -20 -36v-666l98 -27q0 -49 -33 -73h-309v55l80 29q18 6 18 34v517l-247 -547h-80l-246 540v-528l109 -27q0 -49 -33 -73h-285z" />
<glyph unicode="&#x25fc;" horiz-adv-x="1044" d="M0 0v1044h1044v-1044h-1044z" />
</font>
</defs>
</svg>
