<?xml version="1.0" standalone="no"?>
<!DOCTYPE svg PUBLIC "-//W3C//DTD SVG 1.1//EN" "http://www.w3.org/Graphics/SVG/1.1/DTD/svg11.dtd" >
<svg xmlns="http://www.w3.org/2000/svg" xmlns:xlink="http://www.w3.org/1999/xlink" version="1.1">
<metadata></metadata>
<defs>
<font id="a_futuricaregular" horiz-adv-x="1184" >
<font-face units-per-em="2048" ascent="1638" descent="-410" />
<missing-glyph horiz-adv-x="590" />
<glyph horiz-adv-x="0" />
<glyph unicode="&#xd;" horiz-adv-x="590" />
<glyph unicode=" "  horiz-adv-x="590" />
<glyph unicode="&#x09;" horiz-adv-x="590" />
<glyph unicode="&#xa0;" horiz-adv-x="590" />
<glyph unicode="!" horiz-adv-x="659" d="M211 86q0 49 35 84t84 35t84 -35t35 -84t-35 -84t-84 -35t-84 35t-35 84zM238 354v1190h184v-1190h-184z" />
<glyph unicode="&#x22;" horiz-adv-x="897" d="M184 1544h201l-37 -672h-127zM512 1544h201l-37 -672h-127z" />
<glyph unicode="#" d="M51 430v164h236l57 315h-217v164h246l71 397h158l-72 -397h252l72 397h158l-72 -397h193v-164h-222l-57 -315h203v-164h-232l-77 -430h-158l78 430h-252l-78 -430h-158l78 430h-207zM444 594h252l58 315h-252z" />
<glyph unicode="$" d="M102 397l185 41q30 -140 96.5 -208t196.5 -83v615q-190 85 -267 160q-102 100 -102 256q0 157 105.5 270.5t263.5 130.5v182h102v-182q231 -25 352 -240l-164 -90q-67 124 -188 150v-481q209 -86 297 -183q102 -114 102 -299q0 -175 -111 -308q-114 -136 -288 -159v-196 h-102v194q-181 11 -310 122q-135 117 -168 308zM389 1180q0 -81 50 -133q41 -42 141 -86v440q-81 -17 -136 -79t-55 -142zM682 152q99 26 157 106t58 184q0 97 -58 163q-43 48 -157 112v-565z" />
<glyph unicode="%" horiz-adv-x="1470" d="M70 1253q0 133 98 228.5t235 95.5t234.5 -95t97.5 -229q0 -132 -98.5 -227.5t-233.5 -95.5q-138 0 -235.5 95t-97.5 228zM197 1253q0 -83 60 -141.5t146 -58.5q85 0 145 58.5t60 141.5q0 85 -61 144t-146 59q-86 0 -145 -58.5t-59 -144.5zM238 18l903 1559l92 -53 l-901 -1557zM735 291q0 133 98.5 228t235.5 95t234.5 -95t97.5 -228q0 -132 -98.5 -228t-233.5 -96q-138 0 -236 95.5t-98 228.5zM862 291q0 -83 60.5 -142t146.5 -59q85 0 145 59t60 142q0 85 -61 144t-146 59q-86 0 -145.5 -58.5t-59.5 -144.5z" />
<glyph unicode="&#x26;" horiz-adv-x="1434" d="M109 414q0 148 65 233q61 78 301 252l-78 94q-92 111 -92 248q0 152 99 244t255 92q155 0 252 -77q107 -84 107 -232q0 -184 -279 -396l320 -391l180 209l125 -127l-190 -221l278 -342h-240l-165 203q-225 -236 -459 -236q-211 0 -350 141q-129 132 -129 306zM289 426 q0 -114 92 -202q88 -85 197 -85q82 0 180 53q107 59 174 152l-344 418q-172 -122 -205 -153q-94 -88 -94 -183zM485 1262q0 -80 76 -172l70 -84q122 86 164.5 138.5t42.5 123.5q0 157 -181 157q-69 0 -119 -44q-53 -47 -53 -119z" />
<glyph unicode="'" horiz-adv-x="512" d="M156 1544h200l-37 -672h-126z" />
<glyph unicode="(" horiz-adv-x="614" d="M129 592q0 557 221 1026l154 -68q-76 -154 -124 -402q-52 -269 -52 -556q0 -288 52 -556q48 -249 124 -403l-154 -67q-221 469 -221 1026z" />
<glyph unicode=")" horiz-adv-x="614" d="M111 -367q76 154 124 403q52 268 52 556q0 287 -52 556q-48 248 -124 402l153 68q221 -469 221 -1026t-221 -1026z" />
<glyph unicode="*" horiz-adv-x="1024" d="M201 1126l170 99l-170 98l69 123l172 -98v196h140v-196l172 98l69 -123l-170 -98l170 -99l-69 -122l-172 98v-197h-140v197l-172 -98z" />
<glyph unicode="+" d="M113 440v176h391v390h176v-390h387v-176h-387v-395h-176v395h-391z" />
<glyph unicode="," horiz-adv-x="582" d="M53 -311l221 549l158 -62l-268 -534z" />
<glyph unicode="-" horiz-adv-x="680" d="M117 580v153h450v-153h-450z" />
<glyph unicode="." horiz-adv-x="582" d="M174 84q0 48 34.5 82.5t82.5 34.5q49 0 83 -34.5t34 -82.5t-34 -82.5t-83 -34.5q-48 0 -82.5 34.5t-34.5 82.5z" />
<glyph unicode="/" horiz-adv-x="1024" d="M12 -193l852 1971l146 -66l-852 -1970z" />
<glyph unicode="0" d="M53 772q0 346 153 575.5t386 229.5q234 0 386 -229t152 -576t-152 -576t-386 -229t-386.5 229t-152.5 576zM238 772q0 -277 98.5 -456t255.5 -179t255.5 179t98.5 456t-98.5 456t-255.5 179t-255.5 -179t-98.5 -456z" />
<glyph unicode="1" d="M229 0v172h291v1196h-266l104 176h347v-1372h272v-172h-748z" />
<glyph unicode="2" d="M92 0l692 850q121 149 121 254q0 121 -89 209t-212 88q-118 0 -203 -80.5t-96 -202.5h-192q23 210 152.5 334.5t334.5 124.5q204 0 345.5 -134t141.5 -329q0 -181 -129 -338l-491 -600h620v-176h-995z" />
<glyph unicode="3" d="M111 381h184q22 -246 299 -246q127 0 211 87t84 218t-78 212q-80 85 -217 85h-78v160h47q303 0 303 246q0 118 -75 192t-197 74q-105 0 -175 -67q-66 -62 -77 -154h-190q25 184 139 284q118 105 315 105q195 0 320 -117.5t125 -300.5q0 -237 -197 -346q100 -43 159 -140 q62 -103 62 -239q0 -201 -137 -334t-344 -133t-345 116t-138 298z" />
<glyph unicode="4" d="M20 227v9l930 1374h11v-1217h176v-166h-176v-227h-185v227h-756zM332 393h444v651z" />
<glyph unicode="5" d="M76 190l129 154q49 -90 141 -145.5t191 -55.5q153 0 265.5 111.5t112.5 265.5q0 165 -105 267t-273 102q-175 0 -287 -137h-37l149 792h658v-176h-516l-49 -334q92 23 143 23q232 0 366 -147.5t134 -401.5q0 -231 -166.5 -386t-407.5 -155q-249 0 -448 223z" />
<glyph unicode="6" d="M76 467q0 120 57 230q58 114 260 382l375 498l137 -94l-332 -449q-50 -67 -79 -110q74 34 161 34q183 0 313 -142.5t130 -340.5q0 -214 -147.5 -361t-362.5 -147q-213 0 -360 137q-152 143 -152 363zM258 459q0 -145 96 -234q93 -86 232 -86q135 0 231 90t96 217 q0 155 -88 247.5t-237 92.5q-129 0 -229.5 -99t-100.5 -228z" />
<glyph unicode="7" d="M96 1368v176h1112l-802 -1577l-160 92l657 1309h-807z" />
<glyph unicode="8" d="M109 418q0 135 67 240.5t176 142.5q-202 122 -202 360q0 184 125 300t317 116q190 0 316 -117t126 -299q0 -243 -203 -360q112 -41 181 -158q63 -107 63 -225q0 -207 -143 -332q-136 -119 -340 -119q-203 0 -340 122q-143 127 -143 329zM293 428q0 -129 83 -209t218 -80 q131 0 214 81t83 208q0 119 -88 206t-209 87q-124 0 -212.5 -86t-88.5 -207zM330 1147q0 -117 73.5 -189.5t190.5 -72.5q109 0 184.5 76t75.5 186q0 115 -74.5 190.5t-185.5 75.5q-115 0 -189.5 -74.5t-74.5 -191.5z" />
<glyph unicode="9" d="M106 1069q0 214 147.5 361t362.5 147q213 0 360 -137q152 -143 152 -363q0 -120 -57 -230q-58 -114 -260 -382l-375 -498l-137 94l332 449q27 36 80 111q-76 -35 -162 -35q-183 0 -313 142.5t-130 340.5zM291 1098q0 -155 88 -247.5t237 -92.5q129 0 229.5 99t100.5 228 q0 145 -96 234q-93 86 -232 86q-135 0 -231 -90t-96 -217z" />
<glyph unicode=":" horiz-adv-x="582" d="M174 84q0 48 34.5 82.5t82.5 34.5q49 0 83 -34.5t34 -82.5t-34 -82.5t-83 -34.5q-48 0 -82.5 34.5t-34.5 82.5zM174 848q0 48 34.5 82.5t82.5 34.5q49 0 83 -34.5t34 -82.5t-34 -82.5t-83 -34.5q-48 0 -82.5 34.5t-34.5 82.5z" />
<glyph unicode=";" horiz-adv-x="582" d="M53 -311l221 549l158 -62l-268 -534zM217 848q0 48 34 82.5t83 34.5q48 0 82.5 -34.5t34.5 -82.5t-34.5 -82.5t-82.5 -34.5q-49 0 -83 34.5t-34 82.5z" />
<glyph unicode="&#x3c;" d="M68 453v143l1048 424v-193l-784 -303l784 -303v-192z" />
<glyph unicode="=" d="M100 260v176h983v-176h-983zM100 612v176h983v-176h-983z" />
<glyph unicode="&#x3e;" d="M68 29v192l784 303l-784 303v193l1048 -424v-143z" />
<glyph unicode="?" horiz-adv-x="928" d="M104 1247q0 146 113 241q106 89 254 89q165 0 270 -111q97 -104 97 -247q0 -140 -71 -221q-75 -85 -263 -142q-89 -27 -123 -52q-55 -40 -55 -112q0 -145 139 -145q149 0 149 160h187q0 -330 -334 -330q-328 0 -328 330q0 106 47 168q61 82 226 137q158 53 206 100 q35 35 35 105q0 186 -188 186q-79 0 -127.5 -48t-48.5 -128q0 -33 10 -66h-188q-7 49 -7 86zM350 86q0 49 34 84t83 35q51 0 86 -35t35 -84t-35 -84t-84 -35q-50 0 -84.5 34.5t-34.5 84.5z" />
<glyph unicode="@" horiz-adv-x="1819" d="M82 780q0 318 253 556q257 243 615 243q339 0 568 -196q223 -191 223 -459q0 -241 -154 -429q-149 -182 -325 -182q-103 0 -138 129q-46 -50 -126 -86q-94 -43 -193 -43q-145 0 -252 105q-115 112 -115 284q0 185 126 327q135 153 337 153q79 0 168 -40q98 -44 131 -106 l27 105h164l-127 -592q-9 -42 -9 -62q0 -26 29 -26q93 0 180 141q92 148 92 332q0 195 -173 337q-177 144 -433 144q-281 0 -483.5 -188t-202.5 -457q0 -345 209 -506q173 -133 471 -133q149 0 284 31q123 28 179 67l168 -123q-60 -52 -228 -93q-184 -46 -378 -46 q-431 0 -659 206.5t-228 606.5zM612 705q0 -110 73 -171q65 -55 161 -55q145 0 228 109q71 94 71 225q0 92 -64.5 152.5t-167.5 60.5q-132 0 -219 -100q-82 -94 -82 -221z" />
<glyph unicode="A" horiz-adv-x="1440" d="M-18 0l737 1610l739 -1610h-209l-176 387h-708l-177 -387h-206zM444 563h549l-274 625z" />
<glyph unicode="B" horiz-adv-x="1081" d="M131 0v1544h268q486 0 486 -424q0 -197 -172 -278q149 -42 233 -153q80 -106 80 -249q0 -212 -145.5 -326t-411.5 -114h-338zM324 172h145q367 0 367 268q0 279 -398 279h-114v-547zM324 872h108q127 0 200 63.5t73 182.5q0 134 -74 194t-234 60h-73v-500z" />
<glyph unicode="C" horiz-adv-x="1360" d="M61 772q0 360 242 587q233 218 582 218q227 0 387 -104v-226q-167 154 -408 154q-260 0 -431 -167q-179 -175 -179 -462q0 -291 179 -465q169 -164 429 -164q231 0 412 162v-229q-199 -109 -391 -109q-379 0 -600.5 219.5t-221.5 585.5z" />
<glyph unicode="D" horiz-adv-x="1370" d="M131 0v1544h318q399 0 633.5 -208t234.5 -564q0 -359 -236.5 -565.5t-642.5 -206.5h-307zM324 176h77q348 0 535.5 152.5t187.5 445.5q0 286 -187 440t-527 154h-86v-1192z" />
<glyph unicode="E" horiz-adv-x="1057" d="M131 0v1544h832v-176h-639v-432h618v-176h-618v-584h637v-176h-830z" />
<glyph unicode="F" horiz-adv-x="942" d="M131 0v1544h750l-2 -176h-555v-434h538l-2 -176h-536v-758h-193z" />
<glyph unicode="G" horiz-adv-x="1610" d="M51 772q0 332 236.5 568.5t568.5 236.5q181 0 351 -82q167 -81 274 -217l-135 -129q-199 252 -484 252q-258 0 -438 -182.5t-180 -446.5q0 -271 180 -453q175 -176 422 -176q197 0 346 131q155 136 158 328h-420v172h633v-57q0 -322 -196 -532q-202 -218 -527 -218 q-330 0 -557 226q-232 231 -232 579z" />
<glyph unicode="H" horiz-adv-x="1382" d="M131 0v1544h193v-622h735v622h192v-1544h-192v741h-735v-741h-193z" />
<glyph unicode="I" horiz-adv-x="475" d="M141 0v1544h193v-1544h-193z" />
<glyph unicode="J" horiz-adv-x="606" d="M-61 41l61 168q72 -59 135 -59q144 0 144 210v1184h192v-1184q0 -393 -317 -393q-118 0 -215 74z" />
<glyph unicode="K" horiz-adv-x="1229" d="M147 0v1544h193v-684l655 684h252l-708 -727l721 -817h-261l-659 770v-770h-193z" />
<glyph unicode="L" horiz-adv-x="799" d="M131 0v1544h193v-1368h464v-176h-657z" />
<glyph unicode="M" horiz-adv-x="1729" d="M18 0l285 1577l561 -1184l561 1184l285 -1577h-199l-168 1001l-479 -1034l-479 1034l-168 -1001h-199z" />
<glyph unicode="N" horiz-adv-x="1540" d="M131 0v1577l1094 -1147v1114h184v-1577l-1094 1147v-1114h-184z" />
<glyph unicode="O" horiz-adv-x="1729" d="M55 772q0 327 239.5 566t569.5 239t569.5 -239t239.5 -566t-239.5 -566t-569.5 -239t-569.5 239t-239.5 566zM248 772q0 -264 178 -444.5t438 -180.5t438.5 180.5t178.5 444.5t-178.5 444.5t-438.5 180.5t-438 -180.5t-178 -444.5z" />
<glyph unicode="P" horiz-adv-x="1020" d="M131 0v1544h254q590 0 590 -436q0 -220 -140 -340.5t-393 -120.5h-118v-647h-193zM324 819h86q385 0 385 283q0 270 -404 270h-67v-553z" />
<glyph unicode="Q" horiz-adv-x="1729" d="M55 772q0 327 239.5 566t569.5 239t569.5 -239t239.5 -566q0 -328 -239 -567l235 -238h-231l-133 131q-183 -131 -441 -131q-330 0 -569.5 239t-239.5 566zM248 772q0 -264 178 -444.5t438 -180.5q184 0 310 80l-359 355h242l250 -250q174 177 174 440 q0 264 -178.5 444.5t-438.5 180.5t-438 -180.5t-178 -444.5z" />
<glyph unicode="R" horiz-adv-x="1075" d="M131 0v1544h297q256 0 401.5 -114.5t145.5 -321.5q0 -166 -94 -283q-100 -125 -277 -153l488 -672h-234l-450 653h-84v-653h-193zM324 813h84q387 0 387 283q0 276 -404 276h-67v-559z" />
<glyph unicode="S" horiz-adv-x="1102" d="M63 399l183 39q14 -136 98 -213.5t213 -77.5q118 0 201.5 87.5t83.5 211.5q0 108 -76 183q-70 68 -225 127q-214 82 -308 177q-100 101 -100 247q0 170 132 283.5t325 113.5q258 0 395 -234l-154 -92q-88 146 -243 146q-109 0 -185.5 -63t-76.5 -154q0 -80 64 -135.5 t218 -112.5q228 -84 327 -197t99 -291q0 -203 -142 -340t-351 -137q-175 0 -304 108q-137 117 -174 324z" />
<glyph unicode="T" horiz-adv-x="979" d="M12 1368v176h955v-176h-381v-1368h-193v1368h-381z" />
<glyph unicode="U" horiz-adv-x="1380" d="M123 559v985h192v-958q0 -212 98 -325.5t277 -113.5q375 0 375 439v958h192v-985q0 -269 -156.5 -430.5t-410.5 -161.5t-409 161q-158 162 -158 431z" />
<glyph unicode="V" horiz-adv-x="1307" d="M-18 1544h211l460 -1157l461 1157h211l-672 -1577z" />
<glyph unicode="W" horiz-adv-x="2105" d="M-25 1544h209l412 -1114l457 1147l456 -1147l412 1114h209l-617 -1583l-460 1126l-461 -1126z" />
<glyph unicode="X" horiz-adv-x="1161" d="M-6 0l485 809l-426 735h219l316 -563l336 563h219l-445 -735l469 -809h-215l-364 633l-379 -633h-215z" />
<glyph unicode="Y" horiz-adv-x="1163" d="M-18 1544h221l379 -659l379 659h221l-504 -872v-672h-193v672z" />
<glyph unicode="Z" horiz-adv-x="1130" d="M18 0l764 1368h-671v176h983l-762 -1368h782v-176h-1096z" />
<glyph unicode="[" horiz-adv-x="614" d="M113 -455v2171h389v-172h-201v-1827h201v-172h-389z" />
<glyph unicode="\" horiz-adv-x="1128" d="M63 1778h173l827 -1778h-172z" />
<glyph unicode="]" horiz-adv-x="614" d="M113 -283h200v1827h-200v172h389v-2171h-389v172z" />
<glyph unicode="^" horiz-adv-x="1024" d="M72 1145l323 432h230l325 -432h-190l-250 301l-248 -301h-190z" />
<glyph unicode="_" horiz-adv-x="1024" d="M-12 -231h1048v-154h-1048v154z" />
<glyph unicode="`" horiz-adv-x="737" d="M156 1413l170 131l256 -381l-90 -55z" />
<glyph unicode="a" horiz-adv-x="1124" d="M53 467q0 215 127 356.5t320 141.5q214 0 325 -191v162h181v-936h-181v152q-129 -185 -329 -185q-190 0 -316.5 143.5t-126.5 356.5zM233 469q0 -149 86 -245.5t218 -96.5t215.5 95.5t83.5 244.5q0 152 -86 245t-220 93q-126 0 -211.5 -96.5t-85.5 -239.5z" />
<glyph unicode="b" horiz-adv-x="1124" d="M119 0v1618h180v-842q132 189 332 189q191 0 316.5 -142t125.5 -354t-126 -357t-312 -145q-204 0 -336 185v-152h-180zM289 473q0 -152 83.5 -249t219.5 -97q133 0 217 97t84 247q0 145 -85 239.5t-218 94.5q-128 0 -214.5 -94t-86.5 -238z" />
<glyph unicode="c" horiz-adv-x="887" d="M53 467q0 208 141.5 353t346.5 145q169 0 274 -62v-196q-97 94 -270 94q-129 0 -222.5 -99.5t-93.5 -236.5t89.5 -233.5t216.5 -96.5q156 0 280 90v-196q-115 -62 -264 -62q-211 0 -354.5 144.5t-143.5 355.5z" />
<glyph unicode="d" horiz-adv-x="1116" d="M53 459q0 220 125.5 363t317.5 143q197 0 331 -195v848h181v-1618h-181v158q-130 -191 -335 -191q-185 0 -312 143t-127 349zM233 469q0 -150 85 -246t219 -96q133 0 216 92t83 238v18q0 142 -86.5 236t-214.5 94q-130 0 -216 -95.5t-86 -240.5z" />
<glyph unicode="e" horiz-adv-x="1020" d="M51 467q0 208 126 350q132 148 341 148q213 0 337 -144q118 -137 118 -352v-31h-737q0 -139 82 -226t212 -87q196 0 297 178l146 -80q-61 -113 -181 -184.5t-255 -71.5q-218 0 -352 138t-134 362zM236 573h559q-17 106 -89.5 171t-181.5 65q-105 0 -185 -64.5 t-103 -171.5z" />
<glyph unicode="f" horiz-adv-x="553" d="M35 768v168h125v381q0 181 60 257.5t208 76.5q59 0 125 -33v-184q-25 13 -50 27q-31 14 -69 14q-92 0 -92 -158v-381h211v-168h-211v-768h-182v768h-125z" />
<glyph unicode="g" horiz-adv-x="1124" d="M53 467q0 215 121 356.5t311 141.5q214 0 340 -193v164h181v-991q0 -271 -110.5 -400t-348.5 -129q-199 0 -327 118.5t-128 305.5h180q0 -121 77.5 -192.5t215.5 -71.5q260 0 260 332v242q-139 -183 -340 -183q-189 0 -310.5 143t-121.5 357zM233 469q0 -156 80 -249 t217 -93q125 0 217 106q89 103 89 236q0 118 -82 221q-91 115 -224 115q-135 0 -218 -97q-79 -93 -79 -239z" />
<glyph unicode="h" horiz-adv-x="1040" d="M121 0v1618h180v-811q106 158 291 158q332 0 332 -385v-580h-181v555q0 250 -157 250q-114 0 -192 -76q-93 -89 -93 -252v-477h-180z" />
<glyph unicode="i" horiz-adv-x="422" d="M86 1366q0 49 38 86t87 37t87 -37t38 -86t-38 -87t-87 -38t-87 38t-38 87zM121 0v936h180v-936h-180z" />
<glyph unicode="j" horiz-adv-x="422" d="M86 1366q0 49 38 86t87 37t87 -37t38 -86t-38 -87t-87 -38t-87 38t-38 87zM121 -541v1477h180v-1477h-180z" />
<glyph unicode="k" horiz-adv-x="911" d="M121 0v1618h180v-1034l354 352h240l-440 -422l481 -514h-238l-397 432v-432h-180z" />
<glyph unicode="l" horiz-adv-x="434" d="M127 0v1618h180v-1618h-180z" />
<glyph unicode="m" horiz-adv-x="1540" d="M121 0v936h180v-129q95 158 258 158h6q91 -2 165 -52q65 -46 95 -114q95 164 285 166h6q309 0 309 -385v-580h-182v555q0 250 -168 250q-211 0 -211 -305v-500h-180v555q0 250 -174 250q-209 0 -209 -328v-477h-180z" />
<glyph unicode="n" horiz-adv-x="1040" d="M121 0v936h180v-129q106 158 291 158q332 0 332 -385v-580h-181v555q0 130 -45 189q-48 61 -155 61q-128 0 -185 -76t-57 -252v-477h-180z" />
<glyph unicode="o" horiz-adv-x="1104" d="M49 467q0 208 145.5 353t356.5 145t357.5 -145t146.5 -353q0 -209 -147 -354.5t-357 -145.5q-211 0 -356.5 145.5t-145.5 354.5zM229 467q0 -137 94 -232.5t228 -95.5t228.5 96t94.5 232q0 135 -94.5 230.5t-228.5 95.5t-228 -95.5t-94 -230.5z" />
<glyph unicode="p" horiz-adv-x="1122" d="M121 -553v1489h180v-162q134 191 330 191q191 0 315.5 -142t124.5 -356q0 -217 -123.5 -358.5t-316.5 -141.5q-198 0 -330 187v-707h-180zM291 469q0 -147 82 -243q85 -99 221 -99q131 0 212 96.5t81 245.5q0 146 -82.5 241t-214.5 95q-122 0 -210.5 -98.5t-88.5 -237.5z " />
<glyph unicode="q" horiz-adv-x="1122" d="M53 467q0 214 124.5 356t314.5 142q195 0 329 -191v162h183v-1489h-183v707q-132 -187 -329 -187q-192 0 -315.5 141.5t-123.5 358.5zM238 469q0 -149 80.5 -245.5t209.5 -96.5q136 0 221 99q82 96 82 243q0 139 -88.5 237.5t-210.5 98.5q-131 0 -212.5 -95t-81.5 -241z " />
<glyph unicode="r" horiz-adv-x="705" d="M121 0v936h174v-158q104 187 250 187q63 0 143 -29l-41 -182q-49 39 -121 39q-106 0 -168 -91q-57 -84 -57 -215v-487h-180z" />
<glyph unicode="s" horiz-adv-x="768" d="M59 150l131 108q81 -131 193 -131q62 0 102.5 38t40.5 97q0 55 -36.5 85t-174.5 91q-104 46 -151 95q-62 65 -62 165q0 111 87 190q84 77 194 77q159 0 248 -152l-117 -94q-58 86 -131 86q-45 0 -79 -29.5t-34 -66.5q0 -41 31 -69q37 -32 145 -77q137 -57 197 -121 q64 -67 64 -166q0 -128 -94.5 -218.5t-229.5 -90.5q-198 0 -324 183z" />
<glyph unicode="t" horiz-adv-x="467" d="M31 768v168h110v430h181v-430h151v-168h-151v-768h-181v768h-110z" />
<glyph unicode="u" horiz-adv-x="1040" d="M117 406v530h180v-520q0 -281 223 -281t223 279v522h181v-549q0 -195 -99 -304q-105 -116 -305 -116q-188 0 -295.5 118t-107.5 321z" />
<glyph unicode="v" horiz-adv-x="885" d="M-31 936h203l270 -594l269 594h202l-471 -969z" />
<glyph unicode="w" horiz-adv-x="1427" d="M-31 936h195l246 -592l299 625h8l299 -625l246 592h194l-428 -969l-315 627l-316 -627z" />
<glyph unicode="x" horiz-adv-x="981" d="M-31 0l420 508l-336 428h211l223 -301l244 301h219l-346 -428l406 -508h-213l-310 381l-299 -381h-219z" />
<glyph unicode="y" horiz-adv-x="973" d="M0 936h195l311 -672l295 672h196l-661 -1489h-195l275 619z" />
<glyph unicode="z" horiz-adv-x="877" d="M0 0l541 768h-488v168h824l-543 -768h518v-168h-852z" />
<glyph unicode="{" horiz-adv-x="614" d="M49 545v172q88 0 124 84q30 71 30 227v471q0 217 198 217h134v-172h-76q-68 0 -68 -102v-438q0 -305 -153 -373q153 -68 153 -373v-438q0 -103 68 -103h76v-172h-134q-198 0 -198 217v471q0 156 -30 227q-36 85 -124 85z" />
<glyph unicode="|" horiz-adv-x="768" d="M295 -553v2171h178v-2171h-178z" />
<glyph unicode="}" horiz-adv-x="614" d="M80 -283h76q67 0 67 103v438q0 304 154 373q-154 69 -154 373v438q0 102 -67 102h-76v172h133q199 0 199 -217v-471q0 -156 30 -227q35 -84 123 -84v-172q-88 0 -123 -85q-30 -71 -30 -227v-471q0 -217 -199 -217h-133v172z" />
<glyph unicode="~" d="M70 465q139 252 309 252q89 0 232 -104.5t186 -104.5q51 0 98 47q29 30 92 123l129 -94q-144 -252 -311 -252q-94 0 -237 104.5t-181 104.5q-89 0 -190 -170z" />
<glyph unicode="&#xa4;" d="M70 614q0 180 104 308l-86 90l107 106l90 -86q137 105 307 105q178 0 307 -105l90 86l107 -106l-86 -90q104 -136 104 -308q0 -179 -104 -307l86 -90l-107 -106l-90 86q-137 -105 -307 -105q-178 0 -307 105l-90 -86l-107 106l86 90q-104 136 -104 307zM233 614 q0 -147 105.5 -252.5t253.5 -105.5q147 0 252.5 105.5t105.5 252.5q0 148 -105.5 253.5t-252.5 105.5t-253 -106t-106 -253z" />
<glyph unicode="&#xa6;" horiz-adv-x="768" d="M295 362h178v-915h-178v915zM295 705v913h178v-913h-178z" />
<glyph unicode="&#xa7;" d="M82 862q0 179 199 326q-93 85 -93 213q0 167 119 274q115 103 285 103q151 0 261 -87q121 -95 134 -257l-166 -45q-35 227 -241 227q-77 0 -138 -52q-69 -59 -69 -151q0 -121 166 -205l288 -145q277 -139 277 -377q0 -177 -201 -326q92 -84 92 -213q0 -167 -129 -273 q-124 -103 -307 -103q-162 0 -279 87q-127 94 -145 257l164 45q29 -228 274 -228q90 0 160 52q78 59 78 151q0 123 -164 205l-291 145q-274 137 -274 377zM264 881q0 -160 144 -232l391 -196q123 87 123 213q0 157 -146 231l-389 197q-123 -87 -123 -213z" />
<glyph unicode="&#xa9;" horiz-adv-x="2048" d="M217 778q0 333 236.5 570t568.5 237q333 0 570 -236.5t237 -568.5q0 -333 -236.5 -570t-568.5 -237q-333 0 -570 236.5t-237 568.5zM344 778q0 -278 198.5 -476t479.5 -198t479.5 198t198.5 476t-198.5 476t-479.5 198t-479.5 -198t-198.5 -476zM608 778 q0 206 122.5 335.5t328.5 129.5q141 0 243.5 -82t131.5 -223h-125q-33 174 -256 174q-148 0 -233 -96q-81 -92 -81 -238q0 -145 81 -236q86 -96 235 -96q212 0 254 183h127q-29 -153 -140 -237q-102 -77 -245 -77q-190 0 -316.5 130t-126.5 333z" />
<glyph unicode="&#xab;" horiz-adv-x="1024" d="M61 655l373 492l113 -84l-303 -408l305 -407l-113 -84zM455 655l372 492l113 -84l-303 -408l305 -407l-113 -84z" />
<glyph unicode="&#xac;" d="M68 614v174h1046v-548h-174v374h-872z" />
<glyph unicode="&#xad;" horiz-adv-x="680" d="M117 580v153h450v-153h-450z" />
<glyph unicode="&#xae;" horiz-adv-x="2048" d="M217 778q0 333 236.5 570t568.5 237q333 0 570 -236.5t237 -568.5q0 -333 -236.5 -570t-568.5 -237q-333 0 -570 236.5t-237 568.5zM344 778q0 -278 198.5 -476t479.5 -198t479.5 198t198.5 476t-198.5 476t-479.5 198t-479.5 -198t-198.5 -476zM713 313v904l391 2 q301 2 301 -240q0 -226 -242 -248l230 -418h-150l-231 418h-168v-418h-131zM844 862h241q114 0 154 27q35 24 35 90q0 108 -187 108h-243v-225z" />
<glyph unicode="&#xb0;" horiz-adv-x="819" d="M102 1270q0 127 90 217t218 90q127 0 217 -90t90 -217t-90 -217t-217 -90q-128 0 -218 90t-90 217zM205 1270q0 -86 59.5 -145.5t145.5 -59.5t145 59.5t59 145.5t-59 145.5t-145 59.5t-145.5 -59.5t-59.5 -145.5z" />
<glyph unicode="&#xb1;" d="M68 0v176h1046v-176h-1046zM68 621v176h436v354h176v-354h434v-176h-434v-355h-176v355h-436z" />
<glyph unicode="&#xb5;" d="M117 -549v1507h215v-532q0 -140 70 -216q64 -71 171 -71q140 0 205 84q72 94 72 312v423h215v-991h-207v150q-85 -150 -266 -150q-189 0 -260 90v-606h-215z" />
<glyph unicode="&#xb6;" d="M82 1051q0 201 133 347t317 146h570v-172h-127v-1685h-172v1685h-125v-1685h-172v893q-194 5 -309 136t-115 335z" />
<glyph unicode="&#xb7;" horiz-adv-x="582" d="M174 512q0 48 34.5 82.5t82.5 34.5q49 0 83 -34.5t34 -82.5t-34 -82.5t-83 -34.5q-48 0 -82.5 34.5t-34.5 82.5z" />
<glyph unicode="&#xbb;" horiz-adv-x="1024" d="M82 248l305 407l-303 408l113 84l372 -492l-374 -491zM475 248l305 407l-303 408l113 84l373 -492l-375 -491z" />
<glyph unicode="&#xd7;" d="M190 246l279 280l-276 277l124 125l277 -277l274 275l125 -125l-274 -275l274 -274l-125 -125l-274 274l-279 -280z" />
<glyph unicode="&#xf7;" d="M68 436v176h1046v-176h-1046zM473 131q0 49 35 84t84 35t84 -35t35 -84t-35 -84t-84 -35t-84 35t-35 84zM473 926q0 49 35 83.5t84 34.5t84 -34.5t35 -83.5t-35 -84t-84 -35t-84 35t-35 84z" />
<glyph unicode="&#x2000;" horiz-adv-x="889" />
<glyph unicode="&#x2001;" horiz-adv-x="1778" />
<glyph unicode="&#x2002;" horiz-adv-x="889" />
<glyph unicode="&#x2003;" horiz-adv-x="1778" />
<glyph unicode="&#x2004;" horiz-adv-x="592" />
<glyph unicode="&#x2005;" horiz-adv-x="444" />
<glyph unicode="&#x2006;" horiz-adv-x="296" />
<glyph unicode="&#x2007;" horiz-adv-x="296" />
<glyph unicode="&#x2008;" horiz-adv-x="222" />
<glyph unicode="&#x2009;" horiz-adv-x="355" />
<glyph unicode="&#x200a;" horiz-adv-x="98" />
<glyph unicode="&#x2010;" horiz-adv-x="680" d="M117 580v153h450v-153h-450z" />
<glyph unicode="&#x2011;" horiz-adv-x="680" d="M117 580v153h450v-153h-450z" />
<glyph unicode="&#x2012;" horiz-adv-x="680" d="M117 580v153h450v-153h-450z" />
<glyph unicode="&#x2013;" horiz-adv-x="1024" d="M-12 580v153h1048v-153h-1048z" />
<glyph unicode="&#x2014;" horiz-adv-x="2048" d="M-12 580v153h2072v-153h-2072z" />
<glyph unicode="&#x2018;" horiz-adv-x="567" d="M123 1030l272 547l115 -47l-225 -563z" />
<glyph unicode="&#x2019;" horiz-adv-x="567" d="M57 1014l226 563l161 -64l-272 -546z" />
<glyph unicode="&#x201a;" horiz-adv-x="567" d="M111 -319l225 563l162 -64l-273 -547z" />
<glyph unicode="&#x201c;" horiz-adv-x="899" d="M123 1030l272 547l115 -47l-225 -563zM463 1030l272 547l115 -47l-225 -563z" />
<glyph unicode="&#x201d;" horiz-adv-x="899" d="M49 1014l225 563l162 -64l-272 -546zM389 1014l225 563l162 -64l-272 -546z" />
<glyph unicode="&#x201e;" horiz-adv-x="899" d="M102 -319l226 563l161 -64l-272 -547zM442 -319l226 563l161 -64l-272 -547z" />
<glyph unicode="&#x2022;" d="M207 772q0 161 113 274t274 113t274 -113t113 -274t-113 -274t-274 -113t-274 113t-113 274z" />
<glyph unicode="&#x2026;" horiz-adv-x="2048" d="M221 86q0 49 35 84t84 35t84 -35t35 -84t-35 -84t-84 -35t-84 35t-35 84zM905 86q0 49 35 84t84 35t84 -35t35 -84t-35 -84t-84 -35t-84 35t-35 84zM1589 86q0 49 35 84t84 35t84 -35t35 -84t-35 -84t-84 -35t-84 35t-35 84z" />
<glyph unicode="&#x202f;" horiz-adv-x="355" />
<glyph unicode="&#x2039;" horiz-adv-x="768" d="M123 655l373 492l114 -84l-305 -408l307 -407l-114 -84z" />
<glyph unicode="&#x203a;" horiz-adv-x="768" d="M158 248l305 407l-303 408l112 84l373 -492l-375 -491z" />
<glyph unicode="&#x205f;" horiz-adv-x="444" />
<glyph unicode="&#x2122;" horiz-adv-x="2048" d="M76 1413v131h739v-131h-299v-731h-139v731h-301zM983 682v862h227l265 -608l270 608h225v-862h-137v743l-317 -743h-86l-308 743v-743h-139z" />
<glyph unicode="&#x25fc;" horiz-adv-x="935" d="M0 0v935h935v-935h-935z" />
</font>
</defs>
</svg>
